<?xml version="1.0" standalone="no"?>
<!DOCTYPE svg PUBLIC "-//W3C//DTD SVG 1.1//EN" "http://www.w3.org/Graphics/SVG/1.1/DTD/svg11.dtd" >
<svg xmlns="http://www.w3.org/2000/svg">
<metadata>
This is a custom SVG webfont generated by Font Squirrel.
Copyright   : Copyright c 20102011 by tyPoland Lukasz Dziedzic with Reserved Font Name Lato Licensed under the SIL Open Font License Version 11 
Designer    : Lukasz Dziedzic
Foundry     : Lukasz Dziedzic
Foundry URL : httpwwwtypolandcom
</metadata>
<defs>
<font id="LatoHairlineItalic" horiz-adv-x="1160" >
<font-face units-per-em="2000" ascent="1610" descent="-390" />
<missing-glyph horiz-adv-x="386" />
<glyph unicode="&#xfb01;" horiz-adv-x="928" d="M766 938l-116 -938h-24l113 918h-490l-113 -908l-38 -250q-2 -8 -5.5 -10t-6.5 -2h-4l144 1170l-150 4q-5 0 -7.5 1.5t-2.5 7.5v7h162l14 110q11 91 43.5 161t80.5 116.5t110.5 70.5t133.5 24q13 0 30.5 -1.5t34 -4.5t31.5 -7t24 -9l-2 -8q-2 -6 -9 -6q-11 0 -37 8t-74 8 q-65 0 -121.5 -20t-101 -63t-75.5 -109.5t-44 -159.5l-16 -110h516z" />
<glyph unicode="&#xfb02;" horiz-adv-x="1002" d="M249 920l-113 -910l-38 -250q-2 -8 -5.5 -10t-6.5 -2h-4l144 1172l-160 6v12h162l10 76q11 91 44 166.5t85 129t121 83t152 29.5q57 0 112 -6.5t102 -7.5h24l-172 -1408h-24l170 1392q-47 1 -104.5 5.5t-109.5 4.5q-78 0 -142.5 -27.5t-113 -78t-80 -122.5t-42.5 -160 l-10 -76h286l-2 -18h-285z" />
<glyph unicode="&#xd;" horiz-adv-x="0" />
<glyph horiz-adv-x="0" />
<glyph horiz-adv-x="0" />
<glyph unicode=" "  horiz-adv-x="386" />
<glyph unicode="&#x09;" horiz-adv-x="386" />
<glyph unicode="&#xa0;" horiz-adv-x="386" />
<glyph unicode="!" horiz-adv-x="562" d="M410 1400l-70 -572q-8 -65 -20 -149t-30 -203h-16q6 59 10.5 105t9 86t9 78.5t9.5 82.5l70 572h28zM168 48q0 27 18.5 46.5t45.5 19.5t46.5 -19.5t19.5 -46.5t-19.5 -45.5t-46.5 -18.5t-45.5 18.5t-18.5 45.5z" />
<glyph unicode="&#x22;" horiz-adv-x="628" d="M318 1400l-36 -294l-20 -152q0 -8 -8 -8t-8 8l16 152l38 294h18zM554 1400l-36 -294l-20 -152q0 -8 -8 -8t-8 8l16 152l38 294h18z" />
<glyph unicode="#" d="M714 460l-158 -460h-6q-12 0 -12 7q0 3 2 9.5t9 25.5l143 418h-342l-152 -444q-5 -16 -18 -16h-10l158 460h-214q-12 0 -12 9v9h231l153 444h-272v6q0 6 5 9t11 3h260l154 444q5 16 20 16h8l-160 -460h342l160 460h10q9 0 9 -9q0 -4 -3 -11l-154 -440h236l-1 -6 q-3 -12 -15 -12h-224l-153 -444h265q14 0 14 -12q0 -2 -0.5 -2.5t-0.5 -1.5q-1 -1 -1 -2h-282zM355 478h342l153 444h-342z" />
<glyph unicode="$" d="M517 -16q-70 0 -124 12.5t-97.5 36t-78.5 57t-65 76.5l4 4q5 3 7 4.5t7 1.5q6 0 16 -12.5t27 -31.5t42.5 -41.5t62.5 -41.5t86.5 -32t115.5 -13l115 728q-59 20 -113.5 43t-97.5 57.5t-68.5 83.5t-25.5 120q0 74 28.5 142t81.5 120t129.5 84t172.5 34l30 186q3 16 14 16 h10l-32 -202q97 -2 168 -35t130 -103l-4 -6q-3 -6 -10 -6t-15.5 9.5t-22.5 23.5t-35 30.5t-50.5 31t-70 24.5t-93.5 11l-103 -647q61 -21 122.5 -45t111 -59t81 -86t31.5 -127q0 -89 -32.5 -169t-93.5 -140.5t-147 -97.5t-193 -40l-38 -243q0 -16 -14 -16h-10zM980 428 q0 71 -28 118.5t-74 80.5t-104 55t-119 43l-114 -721q101 3 182 39t138 93.5t88 133t31 158.5zM352 1040q0 -65 23.5 -110t63.5 -77t91.5 -55t107.5 -43l101 640q-91 -2 -163 -31.5t-121.5 -78.5t-76 -112.5t-26.5 -132.5z" />
<glyph unicode="%" horiz-adv-x="1382" d="M684 1130q0 -107 -25.5 -185t-68 -129.5t-98 -76.5t-114.5 -25q-47 0 -87.5 17.5t-70 53t-46 89t-16.5 124.5q0 106 25 185t67 130.5t97.5 77t116.5 25.5q46 0 86.5 -17.5t70 -53.5t46.5 -89.5t17 -125.5zM662 1130q0 68 -15.5 118.5t-42.5 83.5t-63.5 49.5t-78.5 16.5 q-56 0 -107 -23.5t-90.5 -73t-63 -125t-23.5 -178.5q0 -68 15.5 -118t42.5 -83t64 -49t80 -16q55 0 106 23.5t90 72t62.5 123.5t23.5 179zM1236 1392q8 8 18 8h14l-1082 -1392q-5 -8 -16 -8h-14zM1276 400q0 -107 -25.5 -185t-68 -129.5t-98 -76.5t-114.5 -25 q-47 0 -87.5 17.5t-70 53t-46 89t-16.5 124.5q0 106 25 185t67 130.5t97.5 77t116.5 25.5q46 0 86.5 -17.5t70 -53.5t46.5 -89.5t17 -125.5zM1254 400q0 68 -15.5 118.5t-42.5 83.5t-63.5 49.5t-78.5 16.5q-56 0 -107 -23.5t-90.5 -73t-63 -125t-23.5 -178.5 q0 -68 15.5 -118t42.5 -83t64 -49t80 -16q55 0 106 23.5t90 72t62.5 123.5t23.5 179z" />
<glyph unicode="&#x26;" horiz-adv-x="1254" d="M714 1416q53 0 99.5 -18t81 -52.5t54.5 -83.5t20 -110h-9q-5 0 -8.5 3.5t-3.5 12.5q0 31 -12.5 70.5t-40 74.5t-72.5 59t-109 24q-71 0 -129.5 -24t-101 -67t-66 -102t-23.5 -129q0 -80 37 -160.5t105 -161.5l380 -454q57 79 94 161t51 151q3 12 15 12h10 q-11 -75 -51 -164t-105 -176l236 -282h-16q-9 0 -14.5 1t-13.5 9l-208 251q-45 -57 -100 -107.5t-119 -88t-135.5 -59.5t-149.5 -22q-60 0 -117 21t-101 61.5t-71 99t-27 134.5q0 84 31.5 159t85 136.5t125 108t151.5 73.5q-58 75 -87.5 143.5t-29.5 145.5t26 141.5t72 111 t109 72t137 25.5zM118 302q0 -75 27.5 -131t70.5 -93t95.5 -55.5t102.5 -18.5q75 0 144.5 21.5t131 59t114.5 87t96 105.5l-401 484q-80 -27 -149 -72t-121 -105t-81.5 -131.5t-29.5 -150.5z" />
<glyph unicode="'" horiz-adv-x="394" d="M318 1400l-36 -294l-20 -152q0 -8 -8 -8t-8 8l16 152l38 294h18z" />
<glyph unicode="(" horiz-adv-x="552" d="M209 458q0 -83 9.5 -170.5t29 -174.5t47.5 -171t66 -160l2 -4t1 -4q0 -6 -11 -11l-6 -3q-86 181 -123 357t-37 333q0 80 4.5 157t18 155.5t38.5 161t66.5 173t102 191t144.5 216.5l5 -3q2 -1 5 -3t3 -5q0 -4 -5 -11q-91 -124 -158.5 -244t-112.5 -244t-67 -256t-22 -280z " />
<glyph unicode=")" horiz-adv-x="552" d="M378 806q0 83 -9.5 170.5t-29 174.5t-48 170.5t-65.5 160.5l-2 4t-1 4q0 5 11 11l6 3q86 -181 123 -357t37 -333q0 -80 -4.5 -157t-18 -155.5t-38.5 -161t-66.5 -173t-102 -191.5t-144.5 -216l-5 3q-2 1 -5 3t-3 5q0 4 5 11q91 124 158.5 244t112.5 244t67 256t22 280z " />
<glyph unicode="*" horiz-adv-x="736" d="M390 926l28 228q2 11 3.5 18.5t8.5 23.5q-14 -12 -20 -16t-16 -10l-200 -118l-8 18l200 118q10 5 17.5 7.5t23.5 7.5q-8 3 -13.5 5t-9 3.5t-7 3.5t-7.5 5l-172 118l12 18l172 -118q9 -6 12.5 -11.5t17.5 -18.5q-1 13 -2 20t-1 14t1 12l28 228h20l-28 -228q-2 -12 -4 -20 t-8 -26q14 14 20.5 19t17.5 11l200 118l6 -18l-200 -118q-10 -6 -17.5 -9.5t-21.5 -7.5q14 -5 20.5 -7t14.5 -8l174 -118l-12 -18l-172 118q-10 7 -14.5 9.5t-15.5 15.5q0 -11 0.5 -17.5t0.5 -11.5q0 -7 -1 -12l-28 -228h-20z" />
<glyph unicode="+" d="M670 1150l-58 -470h452l-2 -20h-452l-58 -472h-20l58 472h-450l2 20h450l58 470h20z" />
<glyph unicode="," horiz-adv-x="370" d="M74 52q0 24 16.5 43t43.5 19t44.5 -20t17.5 -58q0 -77 -33.5 -148.5t-84.5 -125.5l-3 3q-3 3 -3 7q0 5 4 10q7 11 23.5 33t33 51.5t29.5 66.5t14 78q-17 -19 -46 -19q-24 0 -40 16.5t-16 43.5z" />
<glyph unicode="-" horiz-adv-x="588" d="M106 598h404l-2 -20h-406z" />
<glyph unicode="." horiz-adv-x="370" d="M70 48q0 27 18.5 46.5t45.5 19.5t46.5 -19.5t19.5 -46.5t-19.5 -45.5t-46.5 -18.5t-45.5 18.5t-18.5 45.5z" />
<glyph unicode="/" horiz-adv-x="630" d="M-38 -66q-3 -8 -9.5 -10t-12.5 -2h-8l774 1506q6 12 20 12h10z" />
<glyph unicode="0" d="M694 1416q88 0 164.5 -35.5t133 -106.5t88.5 -178.5t32 -251.5q0 -218 -49 -379.5t-131.5 -268t-190 -158.5t-223.5 -52q-89 0 -165 35.5t-132.5 106.5t-88.5 178.5t-32 251.5q0 218 49 379.5t131.5 268t190 158.5t223.5 52zM520 6q111 0 213.5 50t181.5 153.5t126 261.5 t47 373q0 139 -30.5 243t-83.5 172.5t-125.5 102.5t-156.5 34q-111 0 -213.5 -50t-181.5 -153.5t-126 -261.5t-47 -373q0 -140 30.5 -243.5t83.5 -172t125.5 -102.5t156.5 -34z" />
<glyph unicode="1" d="M270 20h340l160 1296l13 61l-405 -331q-5 -4 -11 -4q-7 0 -11 8l-2 4l436 354h14l-170 -1388h332l-2 -20h-696z" />
<glyph unicode="2" d="M716 1416q67 0 129 -18.5t110 -57.5t76.5 -99t28.5 -143q0 -87 -28 -159.5t-75.5 -137.5t-111.5 -126.5t-136 -126.5l-587 -532q22 2 49.5 3t62.5 1h724q10 0 10 -10l-2 -10h-876l1 9q0 5 3.5 9t5.5 6l568 512q76 69 143 133t117 130.5t79 138.5t29 158q0 77 -26.5 133.5 t-71.5 93.5t-103 55t-121 18q-78 0 -146.5 -24t-124 -67.5t-95.5 -103.5t-60 -133q-5 -16 -18 -16h-10q21 84 63.5 151.5t102 114.5t133.5 72.5t157 25.5z" />
<glyph unicode="3" d="M722 1416q67 0 128 -17.5t107.5 -55t74.5 -95t28 -136.5q0 -83 -31.5 -150.5t-83.5 -118t-117.5 -81.5t-132.5 -41q79 -7 138.5 -32.5t99.5 -66.5t60.5 -94.5t20.5 -115.5q0 -86 -37.5 -164t-103.5 -136.5t-154.5 -93t-190.5 -34.5q-189 0 -285.5 92t-112.5 260h8 q3 0 8.5 -1.5t7.5 -10.5q10 -73 35 -132t70 -101t111.5 -64.5t159.5 -22.5q110 0 196 38t144.5 97t89 131t30.5 140q0 63 -20 118t-67 95.5t-124.5 64t-192.5 24.5l2 16q100 3 182.5 31.5t141.5 78.5t91.5 119t32.5 153q0 74 -26 128t-69.5 89t-100.5 52t-120 17 q-78 0 -147 -24t-124.5 -67.5t-96 -103.5t-60.5 -133q-5 -16 -16 -16h-10q21 84 63.5 151.5t102 114.5t133.5 72.5t157 25.5z" />
<glyph unicode="4" d="M815 452h297l-2 -8q0 -12 -16 -12h-281l-53 -432h-22l53 432h-695q-11 0 -13.5 2.5t-4.5 7.5v8l840 952h14zM900 1322q2 20 7 37l-802 -907h688z" />
<glyph unicode="5" d="M1067 1392q-2 -14 -15 -14h-566l-171 -556q76 20 142.5 28.5t125.5 8.5q102 0 178 -26t126.5 -72.5t75.5 -112t25 -144.5q0 -124 -44.5 -220.5t-118 -163t-169 -101.5t-196.5 -35q-54 0 -102.5 8.5t-90 23t-75 33.5t-58.5 39l6 9q5 5 12 5t29.5 -14.5t60.5 -32.5 t92.5 -32.5t127.5 -14.5q97 0 187.5 32t160 95t111 155.5t41.5 213.5q0 74 -22.5 135.5t-69.5 106t-119.5 69.5t-172.5 25q-59 0 -126.5 -9t-145.5 -29l-16 8l178 590h600z" />
<glyph unicode="6" d="M648 818q87 0 155.5 -27.5t116.5 -75.5t73 -114.5t25 -144.5q0 -106 -39 -193t-106.5 -149t-159 -96t-197.5 -34q-83 0 -150.5 25.5t-116 74.5t-75 119.5t-26.5 160.5q0 54 13.5 108t42 112.5t74 123t110.5 138.5l474 548q6 6 12 6h20l-488 -564q-68 -78 -113.5 -140.5 t-74.5 -120.5q32 56 79 101t103 76.5t119.5 48.5t128.5 17zM170 362q0 -77 24 -142.5t69 -113.5t109.5 -75t145.5 -27q108 0 196 34t150 94.5t96 143t34 180.5q0 78 -24.5 141t-69.5 108t-109 69t-143 24q-109 0 -197 -39t-150.5 -101t-96.5 -140t-34 -156z" />
<glyph unicode="7" d="M1172 1400v-6q0 -5 -2.5 -11t-5.5 -11l-860 -1356q-5 -8 -10 -12t-16 -4h-12l866 1364q2 4 5.5 7.5l6.5 6.5h-875q-12 0 -12 7l1 15h914z" />
<glyph unicode="8" d="M518 -16q-89 0 -162.5 23t-126 66t-81 104t-28.5 137q0 100 33 174t88 124.5t126 79t147 39.5q-62 13 -109 40.5t-79.5 66.5t-49 88t-16.5 104q0 79 30.5 149.5t87.5 123t137 83t179 30.5q84 0 149 -24.5t109 -66.5t67 -98.5t23 -120.5q0 -71 -23.5 -133t-67.5 -111.5 t-106.5 -83.5t-141.5 -48q61 -10 116.5 -33.5t97.5 -63t66.5 -96t24.5 -131.5q0 -99 -37.5 -177.5t-103.5 -132.5t-155.5 -83t-193.5 -29zM520 4q98 0 183 28t147.5 80t98 126.5t35.5 167.5q0 62 -17.5 110t-46.5 82.5t-67 58t-80 37.5t-84.5 20t-80.5 6q-44 0 -95 -7.5 t-102 -25t-99 -47t-85 -74t-59 -106t-22 -142.5q0 -71 27 -129t76 -99t118 -63.5t153 -22.5zM610 740q100 0 176 30.5t127.5 81.5t78 117t26.5 137q0 62 -21.5 115t-63.5 92t-102.5 61t-138.5 22q-92 0 -167.5 -28t-129 -77t-82.5 -115.5t-29 -143.5q0 -57 19.5 -110 t60 -93.5t102 -64.5t144.5 -24z" />
<glyph unicode="9" d="M610 614q-85 0 -151.5 26t-112.5 72.5t-70 110.5t-24 139q0 99 38.5 182.5t104.5 143.5t154 94t187 34q79 0 144 -27t111.5 -76t72.5 -117.5t26 -151.5q0 -63 -15 -115.5t-44 -105t-72.5 -109.5t-100.5 -128l-462 -580q-3 -5 -6 -5.5t-6 -0.5h-20q166 208 283.5 353 t195 243t120.5 158t61 97q-31 -54 -76 -98t-99.5 -75t-115.5 -47.5t-123 -16.5zM1066 1050q0 75 -24 138.5t-67.5 109.5t-105 72t-135.5 26q-97 0 -180.5 -31.5t-145 -88.5t-97 -137t-35.5 -177q0 -75 24 -135.5t67.5 -103.5t105 -66t137.5 -23q104 0 188.5 37.5t144 97 t91.5 133.5t32 148z" />
<glyph unicode=":" horiz-adv-x="370" d="M70 48q0 27 18.5 46.5t45.5 19.5t46.5 -19.5t19.5 -46.5t-19.5 -45.5t-46.5 -18.5t-45.5 18.5t-18.5 45.5zM174 886q0 27 18.5 46.5t45.5 19.5t46.5 -19.5t19.5 -46.5t-19.5 -45.5t-46.5 -18.5t-45.5 18.5t-18.5 45.5z" />
<glyph unicode=";" horiz-adv-x="370" d="M190 886q0 27 18.5 46.5t45.5 19.5t46.5 -19.5t19.5 -46.5t-19.5 -45.5t-46.5 -18.5t-45.5 18.5t-18.5 45.5zM74 52q0 24 16.5 43t43.5 19t44.5 -20t17.5 -58q0 -77 -33.5 -148.5t-84.5 -125.5l-3 3q-3 3 -3 7q0 5 4 10q7 11 23.5 33t33 51.5t29.5 66.5t14 78 q-17 -19 -46 -19q-24 0 -40 16.5t-16 43.5z" />
<glyph unicode="&#x3c;" horiz-adv-x="1067" d="M187 676l775 372l-1 -11q-1 -11 -22 -21l-683 -326q-12 -6 -24 -11.5t-25 -8.5q22 -7 44 -20l603 -326q17 -9 17 -18q0 -2 -0.5 -4.5t-0.5 -4.5q-1 -3 -1 -5l-684 372z" />
<glyph unicode="=" d="M178 540h800l-2 -20h-800zM214 834h800l-2 -20h-800z" />
<glyph unicode="&#x3e;" horiz-adv-x="1067" d="M929 664l-775 -372l1 11q1 11 22 21l683 326q12 6 24 11.5t25 8.5q-22 7 -44 20l-603 326q-17 9 -17 18v4.5t1 4.5q0 3 1 5l684 -372z" />
<glyph unicode="?" horiz-adv-x="640" d="M124 1279q25 25 56.5 50t69 44t80.5 31t92 12q52 0 99.5 -17.5t83.5 -50t57.5 -79.5t21.5 -105q0 -83 -25.5 -142.5t-64.5 -104t-85.5 -77.5t-87.5 -63t-71 -60t-36 -69l-28 -172h-16l22 174q5 41 34 73t70 62t87.5 62.5t85.5 75.5t65 100.5t26 138.5q0 55 -19.5 98.5 t-52.5 73.5t-76.5 46t-91.5 16q-67 0 -117 -20t-85 -43.5t-55 -43.5t-27 -20q-4 0 -7 4zM180 48q0 27 18.5 46.5t45.5 19.5t46.5 -19.5t19.5 -46.5t-19.5 -45.5t-46.5 -18.5t-45.5 18.5t-18.5 45.5z" />
<glyph unicode="@" horiz-adv-x="1510" d="M1038 190q-72 0 -104 36.5t-32 99.5q0 41 12 91q-61 -115 -137 -168t-159 -53q-42 0 -72.5 15t-50.5 41.5t-29.5 61.5t-9.5 76q0 59 16.5 120t47.5 118t75 107.5t99 88t119.5 59t136.5 21.5q38 0 76.5 -7.5t65.5 -22.5l-124 -336q-26 -69 -37 -119.5t-11 -86.5 q0 -38 10.5 -61.5t27.5 -37t39 -18.5t45 -5q66 0 131 37.5t116 108.5t83 173t32 231q0 133 -41.5 231.5t-112 164t-164.5 98t-200 32.5q-93 0 -185 -28t-175.5 -81t-155 -128.5t-123.5 -171.5t-81.5 -210t-29.5 -243q0 -154 46 -273t125.5 -200t187.5 -123t233 -42 q134 0 257.5 36.5t236.5 111.5q4 3 8 3q6 0 8 -7q0 -2 0.5 -4t0.5 -4q0 -3 1 -4q-115 -77 -242 -115.5t-272 -38.5q-131 0 -243 43.5t-194 127t-128.5 205.5t-46.5 280q0 130 29.5 246.5t82.5 215t125.5 177t158.5 133.5t182 84.5t196 29.5q109 0 206.5 -34t171 -102.5 t117 -171t43.5 -238.5q0 -130 -33 -235t-87.5 -179.5t-124.5 -115t-143 -40.5zM626 216q37 0 79 14t84 50.5t83 100t76 161.5l117 324q-27 9 -53 13.5t-64 4.5q-69 0 -130 -21t-113 -57t-93.5 -84.5t-71 -103t-45 -112t-15.5 -112.5q0 -37 8.5 -69.5t26.5 -56.5t45.5 -38 t65.5 -14z" />
<glyph unicode="A" horiz-adv-x="1132" d="M1054 0h-18q-9 0 -12 10l-121 468h-677l-236 -468q-5 -10 -16 -10h-16l710 1400h20zM236 498h662l-214 828q-3 11 -5.5 20.5t-4.5 21.5q-5 -11 -10 -21t-10 -21z" />
<glyph unicode="B" horiz-adv-x="1170" d="M160 0l172 1400h336q186 0 277 -77.5t91 -218.5q0 -75 -27 -142.5t-74 -120.5t-109.5 -86.5t-133.5 -40.5q75 -6 134.5 -30t100.5 -63t63 -92t22 -119q0 -98 -32 -174t-92 -128.5t-146.5 -80t-195.5 -27.5h-386zM270 700l-84 -680h362q103 0 184.5 25t138.5 74.5 t87 121.5t30 167q0 67 -24.5 121t-70 92t-111.5 58.5t-148 20.5h-364zM272 720h322q111 0 190.5 35t130.5 90.5t75 122.5t24 132q0 132 -85.5 206t-262.5 74h-312z" />
<glyph unicode="C" horiz-adv-x="1295" d="M680 4q79 0 143 13.5t114 34.5t87 44.5t62 44.5t39.5 34.5t19.5 13.5q4 0 6.5 -3t3.5 -4l3 -4q-46 -43 -97 -78.5t-109.5 -61t-126.5 -40t-147 -14.5q-117 0 -213 42.5t-164 121.5t-105.5 191t-37.5 251q0 184 54.5 336.5t150.5 261t226.5 168.5t282.5 60q70 0 125 -10 t101 -30.5t86 -51.5t80 -72l-2 -3q-4 -7 -14 -7q-8 0 -29 24t-63.5 53t-111.5 53t-174 24q-145 0 -270.5 -56.5t-218.5 -161.5t-146 -254t-53 -334q0 -135 36.5 -243.5t102.5 -184.5t157.5 -117t201.5 -41z" />
<glyph unicode="D" horiz-adv-x="1410" d="M1312 812q0 -191 -52.5 -341.5t-145 -255t-219.5 -160t-275 -55.5h-460l172 1400h460q119 0 215.5 -40.5t164 -116.5t104 -185t36.5 -246zM1286 812q0 133 -35 238.5t-99.5 179t-156.5 112t-205 38.5h-436l-168 -1360h436q142 0 264 53t210.5 154.5t139 249t50.5 335.5z " />
<glyph unicode="E" horiz-adv-x="1104" d="M1086 1400l-4 -22h-729l-81 -656h620l-4 -22h-618l-84 -678h732l-4 -22h-754l172 1400h754z" />
<glyph unicode="F" horiz-adv-x="1062" d="M1082 1378h-729l-83 -676h638l-4 -22h-637l-83 -680h-24l172 1400h754z" />
<glyph unicode="G" horiz-adv-x="1400" d="M696 4q79 0 144.5 9.5t122.5 28t109 45t106 60.5l54 435h-288q-10 0 -10 10v10h322l-58 -464q-52 -35 -106.5 -63.5t-115.5 -48.5t-130.5 -31t-151.5 -11q-125 0 -224 42.5t-168.5 121.5t-106.5 190.5t-37 249.5q0 189 53 342t149.5 261t231 166.5t298.5 58.5 q72 0 130.5 -9.5t108 -29t91.5 -50t80 -71.5l-2 -4q-2 -3 -4.5 -5.5t-9.5 -2.5q-5 0 -15.5 11.5t-29.5 28t-48.5 36.5t-72 36.5t-99.5 28t-131 11.5q-157 0 -287 -56t-223 -160.5t-144.5 -254.5t-51.5 -337q0 -134 36 -242t103 -184t162 -117t213 -41z" />
<glyph unicode="H" horiz-adv-x="1392" d="M1110 0h-24l86 700h-902l-86 -700h-24l172 1400h24l-84 -678h902l84 678h24z" />
<glyph unicode="I" horiz-adv-x="536" d="M220 0h-24l172 1400h24z" />
<glyph unicode="J" horiz-adv-x="850" d="M620 412q-14 -115 -48.5 -196t-85.5 -132.5t-116 -75.5t-141 -24h-5q-54 0 -96.5 7.5t-81.5 22.5l2 6q1 3 3.5 6.5t10.5 3.5q9 0 20.5 -4t30 -9t45.5 -9t68 -4q65 0 125.5 20t110 67t85 125.5t49.5 195.5l122 988h24z" />
<glyph unicode="K" horiz-adv-x="1182" d="M309 724h87q17 0 29.5 1t23 4.5t20 10.5t21.5 18l674 626q11 11 19 13.5t17 2.5h14l-704 -652q-17 -17 -29 -24t-29 -10q16 -3 26.5 -10.5t21.5 -21.5l578 -682h-10q-15 0 -20.5 3t-11.5 11l-552 650q-6 7 -11.5 14t-14.5 13t-24 9.5t-40 3.5h-88l-86 -704h-24l172 1402 h24z" />
<glyph unicode="L" horiz-adv-x="936" d="M186 22h658l-4 -22h-680l172 1400h24z" />
<glyph unicode="M" horiz-adv-x="1654" d="M808 314q4 -7 5 -14l711 1092q5 8 14 8h8l-172 -1400h-20l164 1338q1 6 1 9t1 5l-692 -1062q-7 -10 -14 -10h-6q-9 0 -12 10l-451 1067v-9.5t-1 -9.5l-164 -1338h-20l172 1400h8q5 0 8.5 -1.5t5.5 -6.5l454 -1078v0z" />
<glyph unicode="N" horiz-adv-x="1390" d="M340 1400q7 0 12 -8l745 -1349v10.5t1 10.5l164 1336h20l-172 -1400h-4q-7 0 -14 10l-746 1352q-1 -5 -1 -9t-0.5 -8t-0.5 -7l-164 -1338h-20l172 1400h8v0z" />
<glyph unicode="O" horiz-adv-x="1466" d="M1368 814q0 -191 -53 -344t-146 -260.5t-220 -165.5t-275 -58q-118 0 -213 42.5t-162.5 120.5t-104 189t-36.5 248q0 126 24 237t68.5 203t107 164.5t139.5 122.5t166 76.5t187 26.5q118 0 214 -42.5t163.5 -121t104 -190t36.5 -248.5zM1342 814q0 134 -35 242 t-99.5 183.5t-156 116t-203.5 40.5q-93 0 -178.5 -25t-159.5 -73t-134.5 -118.5t-103.5 -160t-66.5 -198t-23.5 -233.5q0 -134 35.5 -242t100.5 -183.5t156 -116t202 -40.5q142 0 264 55.5t211.5 160t140 254.5t50.5 338z" />
<glyph unicode="P" horiz-adv-x="1066" d="M293 600l-73 -600h-24l172 1400h292q193 0 292.5 -84t99.5 -252q0 -104 -37 -189t-103 -146.5t-155.5 -95t-194.5 -33.5h-269zM389 1380l-93 -760h268q102 0 187 33.5t146.5 92t96 139t34.5 175.5q0 155 -92 237.5t-278 82.5h-269z" />
<glyph unicode="Q" horiz-adv-x="1464" d="M1368 814q0 -136 -27.5 -253.5t-77.5 -212.5t-120.5 -167.5t-156.5 -118.5l292 -388h-14q-15 0 -20 8l-277 370q-66 -32 -139.5 -49t-153.5 -17q-118 0 -213 42.5t-162.5 120.5t-104 189t-36.5 248q0 126 24 237t68.5 203t107 164.5t139.5 122.5t166 76.5t187 26.5 q118 0 214 -42.5t163.5 -121t104 -190t36.5 -248.5zM1342 814q0 134 -35 242t-99.5 183.5t-156 116t-203.5 40.5q-93 0 -178.5 -25t-159.5 -73t-134.5 -118.5t-103.5 -160t-66.5 -198t-23.5 -233.5q0 -134 35.5 -242t100.5 -183.5t156 -116t202 -40.5q142 0 264 55.5 t211.5 160t140 254.5t50.5 338z" />
<glyph unicode="R" horiz-adv-x="1140" d="M303 676l-83 -676h-24l172 1400h300q184 0 281 -73t97 -225q0 -98 -34.5 -175.5t-96.5 -132.5t-147.5 -85t-187.5 -33q15 -7 28 -26l422 -650h-16q-8 0 -13 1.5t-11 10.5l-402 628q-7 10 -14 17t-16 11.5t-22 6t-32 1.5h-201zM306 696h258q103 0 187.5 27.5t144.5 80 t93 127t33 169.5q0 143 -91 211.5t-265 68.5h-276l-6 -52z" />
<glyph unicode="S" horiz-adv-x="950" d="M909 1273q-4 -7 -11 -7q-6 0 -14.5 9.5t-21.5 24t-32.5 31.5t-48 31.5t-67.5 24t-90 9.5q-86 0 -154 -29t-115.5 -78.5t-73 -115.5t-25.5 -139q0 -69 25.5 -115.5t67.5 -79t95 -55.5t109 -44.5t109 -45t95 -57t67.5 -82t25.5 -119.5q0 -92 -31.5 -174t-90 -143.5 t-142 -98t-186.5 -36.5q-65 0 -115 12.5t-90 36t-72.5 57t-60.5 76.5l4 4q6 6 14 6q5 0 14.5 -12.5t25 -32t39 -41.5t57.5 -41.5t79.5 -32t106.5 -12.5q97 0 176 34.5t134.5 93t85.5 137t30 167.5q0 68 -25.5 114t-67.5 78t-95 54.5t-109 43t-109 44t-95 57.5t-67.5 83.5 t-25.5 121.5q0 76 26.5 145.5t77 122.5t123.5 84.5t167 31.5q93 0 161.5 -33t122.5 -105z" />
<glyph unicode="T" horiz-adv-x="1068" d="M1142 1400l-2 -22h-483l-169 -1378h-24l169 1378h-487l2 22h994z" />
<glyph unicode="U" horiz-adv-x="1354" d="M618 4q103 0 190.5 40.5t153 110.5t107.5 164t55 201l108 880h24l-108 -880q-14 -111 -58.5 -208.5t-114 -171t-161.5 -116t-200 -42.5q-97 0 -172.5 35t-127 95.5t-78.5 143.5t-27 179q0 21 1 42t4 43l108 880h24l-108 -878q-2 -22 -3.5 -43t-1.5 -42q0 -92 25 -171.5 t73.5 -137.5t120.5 -91t166 -33z" />
<glyph unicode="V" horiz-adv-x="1132" d="M130 1400h15q10 0 13 -10l342 -1316q2 -11 5 -20.5t5 -20.5q5 11 10 20.5t10 20.5l664 1316q5 10 14 10h16l-708 -1400h-20z" />
<glyph unicode="W" horiz-adv-x="1766" d="M130 1400h18q8 0 10 -10l216 -1316q2 -12 3.5 -22t2.5 -22q5 12 9 22t9 22l582 1316q4 10 14 10h4q9 0 10 -10l258 -1316q2 -11 3.5 -21.5t2.5 -22.5q5 12 9 22t9 22l538 1316q2 5 6.5 7.5t9.5 2.5h16l-580 -1400h-20l-264 1344q-2 8 -3 16.5t-1 16.5q-2 -8 -5.5 -16.5 t-6.5 -16.5l-594 -1344h-20z" />
<glyph unicode="X" horiz-adv-x="1036" d="M535 747l-363 653h20q8 0 11.5 -4t8.5 -12l341 -623q2 5 9 13l490 616q5 6 9.5 8t10.5 2h18l-523 -652l413 -748h-22q-8 0 -11 5t-5 9l-394 720q-3 -5 -8 -12l-560 -708q-5 -6 -9.5 -10t-10.5 -4h-22z" />
<glyph unicode="Y" horiz-adv-x="1058" d="M554 595l-74 -595h-24l74 595l-382 805h20q8 0 12 -8l352 -750q3 -6 6 -12.5t6 -14.5q5 8 9.5 14.5t8.5 12.5l536 750q5 8 14 8h20z" />
<glyph unicode="Z" horiz-adv-x="1180" d="M1176 1400l-2 -10q-2 -5 -3.5 -7.5t-6.5 -8.5l-1061 -1352h901l-4 -22h-932l2 10q2 5 3.5 7t4.5 7l1062 1354h-888l4 22h920z" />
<glyph unicode="[" horiz-adv-x="552" d="M98 -242l214 1744h252v-6q0 -12 -14 -12h-218l-212 -1708h220q12 0 12 -12l-2 -6h-252z" />
<glyph unicode="\" horiz-adv-x="630" d="M118 1440h10q15 0 18 -12l404 -1506h-8q-6 0 -12 2t-8 10z" />
<glyph unicode="]" horiz-adv-x="552" d="M22 -236q0 12 16 12h218l210 1708h-218q-8 0 -10 3t-2 9v6h254l-214 -1744h-254v6z" />
<glyph unicode="^" d="M968 812h-14q-13 0 -20 14l-280 506q-5 10 -10 19.5t-8 20.5q-7 -20 -18 -40l-280 -506q-3 -5 -7.5 -9.5t-12.5 -4.5h-14l326 588h12z" />
<glyph unicode="_" horiz-adv-x="726" d="M636 -240l-4 -22h-724l2 22h726z" />
<glyph unicode="`" horiz-adv-x="516" d="M196 1416q15 0 22.5 -4t13.5 -18l122 -236h-14q-9 0 -14 8l-156 250h26z" />
<glyph unicode="a" horiz-adv-x="954" d="M722 0h-6q-7 0 -9.5 3.5t-2.5 8.5l48 418q-38 -97 -87 -178.5t-105.5 -140t-119.5 -91t-130 -32.5q-65 0 -110.5 25t-74 70t-42 107t-13.5 136q0 84 22 166t61 156t93 137t118.5 109t137 72t148.5 26q54 0 99 -10.5t87 -37.5zM310 8q64 0 126.5 33t119.5 95t108 149.5 t93 197.5l56 451q-37 20 -77 29t-86 9q-72 0 -141 -25t-131 -69t-114 -105t-90 -133t-59 -152t-21 -162q0 -73 12.5 -131.5t38.5 -100t67 -64t98 -22.5z" />
<glyph unicode="b" horiz-adv-x="992" d="M122 0l174 1440h22l-109 -887q39 97 90.5 178.5t110 139.5t123.5 90.5t131 32.5q65 0 113 -25.5t79.5 -70.5t46.5 -106.5t15 -133.5q0 -71 -14.5 -148.5t-43 -152t-70 -141.5t-94.5 -117.5t-117.5 -80.5t-138.5 -30q-87 0 -162 43t-117 132l-23 -149q-2 -6 -2 -10t-8 -4 h-6zM664 974q-65 0 -129.5 -33.5t-124.5 -95.5t-113 -151t-95 -200l-36 -301q24 -51 54.5 -86.5t66 -57t75 -31.5t80.5 -10q72 0 133.5 29t112 78t89.5 114.5t65.5 137.5t40 147t13.5 144q0 73 -15 131.5t-44 99.5t-72.5 63t-100.5 22z" />
<glyph unicode="c" horiz-adv-x="856" d="M778 182q-55 -61 -102.5 -99t-92.5 -59t-89 -28.5t-92 -7.5q-84 0 -144.5 29.5t-99.5 80.5t-57.5 121t-18.5 151q0 77 16 154t45.5 146.5t71.5 129t94.5 103t114.5 68.5t132 25q48 0 86.5 -9.5t69.5 -27t56 -41.5t46 -52l-4 -4q-4 -4 -10 -4q-7 0 -21 18.5t-42 40.5 t-72 40.5t-111 18.5q-97 0 -179 -52t-142 -137t-93.5 -194t-33.5 -223q0 -76 16.5 -142t52.5 -115t92 -77t135 -28q60 0 108.5 13.5t86 33.5t65.5 43t48.5 43t33.5 33.5t22 13.5q3 0 5 -0.5t7 -5.5z" />
<glyph unicode="d" horiz-adv-x="994" d="M746 0q-8 0 -10 4.5t-2 9.5l49 418q-39 -98 -90.5 -179.5t-110 -140.5t-123.5 -91.5t-131 -32.5q-65 0 -113 26t-79.5 71t-46.5 107t-15 134q0 71 14.5 148.5t43 152t70 141t94.5 117t117 80t139 29.5q86 0 160.5 -41.5t116.5 -129.5l77 617h22l-176 -1440h-6zM328 8 q64 0 128 33t123.5 95t112.5 150t95 198l38 307q-24 51 -54.5 85.5t-66 56.5t-74.5 31.5t-80 9.5q-72 0 -133.5 -29t-112 -78t-89.5 -113.5t-65.5 -136.5t-40 -147t-13.5 -144q0 -73 15 -131.5t44 -100t72.5 -64t100.5 -22.5z" />
<glyph unicode="e" horiz-adv-x="870" d="M800 814q0 -39 -10.5 -74.5t-38 -67.5t-76.5 -60t-125.5 -52.5t-184.5 -45t-254 -36.5q-9 -59 -9 -116q0 -82 19 -147.5t56.5 -111.5t94 -70.5t132.5 -24.5q57 0 103.5 13.5t83.5 33.5t65.5 43t49 43t34.5 33.5t22 13.5q3 0 5 -0.5t7 -5.5q-47 -51 -91.5 -87.5 t-89.5 -60.5t-92 -35t-99 -11q-80 0 -140.5 26t-101 74t-60.5 117.5t-20 156.5q0 72 14 147.5t42 145.5t69 132t94.5 108t119 72.5t143.5 26.5q70 0 116 -19t73 -47t38 -59t11 -55zM562 974q-95 0 -170.5 -41t-132 -108t-93 -152.5t-52.5 -174.5q148 16 255 36.5t181 44.5 t119.5 51.5t70.5 57.5t33.5 61.5t8.5 64.5q0 24 -11.5 52t-37 52t-68 40t-103.5 16z" />
<glyph unicode="f" horiz-adv-x="536" d="M247 920l-111 -910l-38 -250q-2 -8 -5.5 -10t-6.5 -2h-4l143 1172l-147 4q-10 0 -10 8v6h159l19 150q10 84 36.5 145.5t64 101.5t85.5 59.5t102 19.5q26 0 53 -5.5t47 -16.5l-1 -4q-1 -3 -3.5 -6.5t-7.5 -3.5q-10 0 -32 8t-58 8q-49 0 -92 -16.5t-77.5 -53t-59 -95 t-35.5 -141.5l-20 -150h306l-4 -18h-303z" />
<glyph unicode="g" horiz-adv-x="838" d="M716 740q-1 -61 -16.5 -110t-38.5 -89.5t-49 -75.5t-48 -67.5t-37 -65t-15 -68.5q0 -27 13.5 -51t34 -47.5t44.5 -47.5t44.5 -53t34 -63.5t13.5 -77.5q0 -56 -30.5 -110t-86 -96t-132.5 -68t-169 -26q-72 0 -133 14.5t-105 43t-69 70.5t-25 98q0 64 33 118.5t94 94 t147 62t193 22.5q34 0 69.5 -2.5t73.5 -7.5q-26 26 -45 55.5t-19 70.5q0 21 3.5 40t12.5 40t25 46t42 57q-44 -32 -93.5 -50t-97.5 -18q-57 0 -104 17.5t-80 51t-51.5 82.5t-18.5 111q0 67 22.5 130.5t65.5 113t104.5 80t139.5 30.5q97 0 162 -48h248v-8q0 -3 -3.5 -6.5 t-14.5 -5.5h-206q32 -32 50 -79t18 -107zM674 -76q0 36 -8.5 63.5t-22.5 50.5t-32 42t-36 37q-42 5 -81 8t-75 3q-112 0 -196.5 -22.5t-141 -61t-85 -89t-28.5 -105.5q0 -50 23 -88t64.5 -64.5t99 -40t125.5 -13.5q89 0 161.5 24.5t124 64t79.5 89.5t29 102zM384 398 q73 0 131 30t98.5 78t61.5 109.5t21 124.5q0 59 -17 103t-47.5 73t-74 43.5t-95.5 14.5q-74 0 -131.5 -28.5t-97 -75t-60.5 -106.5t-21 -124q0 -120 63.5 -181t168.5 -61z" />
<glyph unicode="h" horiz-adv-x="1004" d="M122 0l174 1440h22l-102 -841q40 90 91.5 163t110 124.5t122 79.5t126.5 28q109 0 159 -68t50 -195q0 -24 -2 -49.5t-5 -53.5l-74 -628h-22l74 628q6 52 6 99q0 118 -44.5 182.5t-143.5 64.5q-61 0 -123.5 -29.5t-121.5 -85t-112.5 -134.5t-96.5 -177l-66 -548h-22z" />
<glyph unicode="i" horiz-adv-x="426" d="M284 980l-120 -980h-22l120 980h22zM362 1344q0 -21 -16 -37.5t-36 -16.5q-21 0 -36.5 16.5t-15.5 37.5q0 23 15.5 39.5t36.5 16.5q20 0 36 -16.5t16 -39.5z" />
<glyph unicode="j" horiz-adv-x="408" d="M278 980l-142 -1152q-5 -44 -22 -81t-44 -64t-62 -42t-76 -15q-24 0 -41.5 5.5t-32.5 16.5l4 8q4 8 10 8q8 0 21.5 -9t40.5 -9q77 0 123.5 50.5t56.5 131.5l142 1152h22zM362 1344q0 -21 -16 -37.5t-36 -16.5q-21 0 -36.5 16.5t-15.5 37.5q0 23 15.5 39.5t36.5 16.5 q20 0 36 -16.5t16 -39.5z" />
<glyph unicode="k" horiz-adv-x="826" d="M314 1440l-111 -904h43q15 0 24.5 3t23.5 15l478 410q8 7 16 11.5t20 4.5h16l-510 -434q-15 -12 -26 -17q12 -4 20.5 -10.5t15.5 -14.5l416 -504h-16q-8 0 -14 2t-12 10l-392 478q-14 17 -27.5 22.5t-40.5 5.5h-37l-63 -518h-22l176 1440h22z" />
<glyph unicode="l" horiz-adv-x="424" d="M142 0l174 1440h22l-176 -1440h-20z" />
<glyph unicode="m" horiz-adv-x="1536" d="M114 0l118 984h4q8 0 10 -4.5t2 -9.5l-43 -382q39 93 88 168t105 128t117 81.5t125 28.5q49 0 82 -14.5t53.5 -42t29 -68.5t8.5 -93q0 -33 -3 -69.5t-8 -78.5q38 92 88.5 161t106.5 114.5t115 68t114 22.5q51 0 86 -15.5t56.5 -45t31 -73t9.5 -99.5q0 -60 -9 -133 l-74 -628h-22l74 628q9 72 9 131q0 52 -8.5 92t-27.5 67.5t-50 41.5t-77 14q-54 0 -111.5 -23t-113 -70.5t-107 -121.5t-93.5 -176l-69 -583h-22l74 628q5 42 8 78.5t3 68.5q0 48 -7.5 85t-25.5 62.5t-48 38.5t-74 13q-130 0 -239.5 -112t-198.5 -323l-64 -539h-22z" />
<glyph unicode="n" horiz-adv-x="998" d="M114 0l118 984h4q8 0 10 -4.5t2 -9.5l-43 -383q40 93 92 168t111.5 128.5t123.5 82t128 28.5q108 0 158.5 -68.5t50.5 -196.5q0 -23 -2 -48.5t-5 -52.5l-74 -628h-22l74 628q3 26 5 51t2 48q0 118 -45 182.5t-144 64.5q-62 0 -125.5 -30.5t-123 -87t-113 -137 t-96.5 -180.5l-64 -539h-22z" />
<glyph unicode="o" horiz-adv-x="972" d="M422 8q99 0 180.5 50.5t139.5 133.5t90 189t32 217q0 88 -22 158t-63 119t-99 75t-130 26q-66 0 -124.5 -23t-107.5 -63.5t-88 -96t-66 -121t-41.5 -138.5t-14.5 -148q0 -88 22 -158t62.5 -119t98.5 -75t131 -26zM420 -12q-78 0 -140.5 28t-106 79.5t-66.5 125t-23 165.5 q0 77 15 152t43.5 143t69 125.5t92.5 99.5t114.5 66t133.5 24q78 0 140 -28t105.5 -80t67 -125.5t23.5 -164.5q0 -76 -15 -151t-43.5 -143t-69 -126t-92.5 -100t-114.5 -66t-133.5 -24z" />
<glyph unicode="p" horiz-adv-x="984" d="M68 -360l164 1344h4q8 0 10 -4.5t2 -12.5l-47 -416q39 98 90 179.5t110 140t124 91t131 32.5q65 0 113 -25.5t79.5 -70.5t46.5 -106.5t15 -133.5q0 -71 -14.5 -148.5t-43 -152t-70 -141.5t-94.5 -117.5t-117.5 -80.5t-138.5 -30q-86 0 -161 42.5t-117 131.5l-64 -522h-22 zM656 974q-65 0 -129.5 -33.5t-124.5 -95.5t-113 -151t-95 -200l-36 -301q24 -51 54.5 -86.5t66 -57t75 -31.5t80.5 -10q72 0 133.5 29t112 78t89.5 114.5t65.5 137.5t40 147t13.5 144q0 73 -15 131.5t-44 99.5t-72.5 63t-100.5 22z" />
<glyph unicode="q" horiz-adv-x="954" d="M678 -360h-4q-10 0 -14.5 4t-4.5 16q0 3 0.5 9t1.5 13l92 739q-39 -96 -87.5 -175.5t-104.5 -136.5t-118.5 -89t-128.5 -32q-65 0 -110.5 25t-74 70t-42 107t-13.5 136q0 84 22 166t61 156t93 137t118.5 109t137 72t148.5 26q54 0 99 -10.5t87 -37.5zM310 8q64 0 126 33 t119 94.5t108 149t93 196.5l57 453q-37 20 -77 29t-86 9q-72 0 -141 -25t-131 -69t-114 -105t-90 -133t-59 -152t-21 -162q0 -73 12.5 -131.5t38.5 -100t67 -64t98 -22.5z" />
<glyph unicode="r" horiz-adv-x="646" d="M114 0l118 984h4q12 0 12 -14l-41 -362q70 186 163 285t202 99q44 0 86 -16l-4 -18q-42 15 -82 15q-57 0 -109 -29.5t-98.5 -84t-87.5 -133.5t-76 -178l-65 -548h-22z" />
<glyph unicode="s" horiz-adv-x="766" d="M704 898q-5 -8 -7.5 -10t-6.5 -2q-7 0 -20 13.5t-38 30t-65 30.5t-101 14q-57 0 -109 -20t-92 -54.5t-63.5 -79.5t-23.5 -94q0 -46 20 -77.5t52.5 -53.5t74 -38t85 -31.5t85.5 -33t74.5 -42.5t52.5 -61.5t20 -88.5q0 -59 -23 -116t-66 -101.5t-104.5 -71.5t-138.5 -27 q-48 0 -85.5 8.5t-67.5 23.5t-55.5 37t-49.5 49l6 6q6 6 10 6q5 0 19 -17.5t42 -38.5t72.5 -38.5t112.5 -17.5t125 25t97.5 66.5t63 95t22.5 111.5q0 49 -20 83t-52.5 57.5t-74.5 39.5t-85.5 31t-85 32t-74 40.5t-52.5 58t-20 84.5q0 53 24.5 101.5t67 85.5t99 59t121.5 22 q77 0 132 -22.5t102 -73.5z" />
<glyph unicode="t" horiz-adv-x="634" d="M188 146q0 5 0.5 14.5t2 27t5 45t8.5 69.5l75 616h-149q-12 0 -12 10l2 6l161 4l55 394q1 5 4 9.5t8 4.5h6l-50 -408h306l-2 -20h-307l-75 -618q-5 -41 -8 -68l-5 -45t-2.5 -27.5t-0.5 -13.5q0 -38 9.5 -65t26.5 -44t40 -25t50 -8q39 0 69.5 13t53 28t36.5 28t19 13 q4 0 8 -4l2 -4q-33 -41 -85 -67.5t-105 -26.5q-69 0 -107.5 38t-38.5 124z" />
<glyph unicode="u" horiz-adv-x="996" d="M232 980l-74 -624q-6 -53 -6 -99q0 -119 44.5 -184t143.5 -65q62 0 125.5 30.5t123 87.5t113 137.5t96.5 180.5l64 536h22l-118 -980h-6q-8 0 -10 4.5t-2 9.5l46 380v5q-40 -93 -92 -169t-112 -130t-124 -83t-128 -29q-108 0 -158.5 69.5t-50.5 197.5q0 23 2 48.5t5 52.5 l74 624h22z" />
<glyph unicode="v" horiz-adv-x="860" d="M378 0h-16l-272 980h12q8 0 11 -4.5t5 -9.5l248 -898q2 -10 4 -19.5t3 -19.5q3 9 7.5 18.5t9.5 20.5l468 898q7 14 20 14h12z" />
<glyph unicode="w" horiz-adv-x="1314" d="M90 980h10q13 0 16 -14l168 -898q2 -11 3 -20.5t2 -20.5q7 19 17 41l398 908q3 10 12 10h4q5 0 6 -2.5t2 -7.5l176 -908q2 -11 4 -21.5t3 -20.5q4 9 8 20t9 22l386 898q7 14 18 14h12l-428 -980h-10q-8 0 -10 10l-178 912q-2 8 -2.5 15t-1.5 15q-5 -15 -12 -30l-404 -912 q-5 -10 -11 -10h-9z" />
<glyph unicode="x" horiz-adv-x="782" d="M380 521l-258 459h12q13 0 18 -8l244 -437q2 3 4 5.5t4 5.5l338 426q5 8 14 8h18l-368 -461l288 -519h-12q-15 0 -20 10l-274 496q-3 -5 -8 -12l-384 -486q-4 -5 -8 -6.5t-10 -1.5h-16z" />
<glyph unicode="y" horiz-adv-x="860" d="M194 -344q-8 -16 -22 -16h-12l201 377l-271 963h12q8 0 11 -3t5 -11l250 -890q5 -18 7 -38q3 10 7.5 19.5t9.5 18.5l470 894q5 10 16 10h14z" />
<glyph unicode="z" horiz-adv-x="820" d="M801 973q0 -6 -9 -15l-746 -938h610l-2 -20h-640v6q0 4 2.5 7.5t5.5 6.5l747 940h-607l4 20h636z" />
<glyph unicode="{" horiz-adv-x="552" d="M230 480q0 62 -39 101t-101 39l2 20q37 0 70 14t58 42.5t39.5 71t14.5 100.5q0 36 -3 75l-6 78l-6 78t-3 75q0 74 20 134.5t55 103.5t82 66.5t101 23.5h52v-8q-3 -10 -14 -10h-40q-47 0 -89.5 -20t-74.5 -59t-51 -97t-19 -134q0 -36 3 -75.5t6 -80t6 -79.5t3 -73 q0 -60 -16 -102.5t-40 -71t-52.5 -43.5t-53.5 -19q21 -4 41.5 -15t37 -29.5t27 -44.5t10.5 -59q0 -62 -19 -123t-41.5 -122.5t-41 -125.5t-18.5 -131q0 -46 12.5 -83.5t35 -64.5t54.5 -41.5t70 -14.5h42q10 0 10 -10l-2 -8h-52q-44 0 -79.5 17.5t-60.5 48t-38.5 71 t-13.5 87.5q0 70 19 132t42 122t42 119.5t19 124.5z" />
<glyph unicode="|" horiz-adv-x="600" d="M230 1502h20v-1862h-20v1862z" />
<glyph unicode="}" horiz-adv-x="552" d="M312 392q0 -36 3 -75l6 -78l6 -78t3 -75q0 -74 -20 -134.5t-55 -103.5t-82 -66.5t-101 -23.5h-52l1 7q2 11 13 11h40q47 0 89.5 20t74.5 59t51 97t19 134q0 36 -2.5 75.5t-5.5 80t-5.5 79t-2.5 73.5q0 59 15.5 101.5t39 71t51.5 43.5t54 20q-21 4 -41.5 15t-37 29.5 t-27 44.5t-10.5 59q0 62 18.5 123t41 122.5t41.5 125t19 131.5q0 46 -12.5 83.5t-35 64.5t-54.5 41.5t-70 14.5h-40q-11 0 -11 10v4q0 2 1 4h52q44 0 79.5 -17.5t60.5 -48t38.5 -71.5t13.5 -87q0 -47 -9 -90t-22 -84t-29 -80.5t-29 -79.5t-22 -80.5t-9 -83.5q0 -31 10 -56.5 t28.5 -44t44 -29t57.5 -10.5l-4 -20q-36 0 -69 -14t-58 -42.5t-40 -71t-15 -100.5z" />
<glyph unicode="~" d="M736 528q42 0 75.5 15.5t57.5 42.5t37 63.5t14 78.5h20q0 -44 -13.5 -83.5t-39.5 -70t-64 -48.5t-87 -18q-51 0 -107 22.5t-112 49.5t-110.5 49.5t-102.5 22.5q-42 0 -75.5 -15.5t-57.5 -42.5t-37 -63.5t-14 -78.5h-20q0 43 13.5 83t39.5 70.5t64 48.5t87 18 q51 0 107 -22.5t112 -49.5t110.5 -49.5t102.5 -22.5z" />
<glyph unicode="&#xa1;" horiz-adv-x="562" d="M168 -360l68 558q5 44 10 82.5t11 78.5t12.5 86t14.5 105h14q-6 -59 -10.5 -105t-9 -86t-9 -78.5t-9.5 -82.5l-68 -558h-24zM268 930q0 27 18.5 46.5t45.5 19.5t46.5 -19.5t19.5 -46.5t-19.5 -45.5t-46.5 -18.5t-45.5 18.5t-18.5 45.5z" />
<glyph unicode="&#xa2;" d="M552 -11q-90 2 -161 32t-120 84.5t-75 131.5t-26 173q0 131 37.5 239t107.5 185t169.5 119.5t223.5 42.5l36 230q3 16 14 16h10l-38 -247q90 -3 157 -31t113 -70l-6 -6q-3 -2 -5 -3t-5 -1q-6 0 -21.5 13.5t-45 30t-76 31.5t-114.5 17l-151 -968q84 1 144.5 19.5t101 40 t62.5 39t28 17.5q3 0 4.5 -1.5l3.5 -3.5l2 -3q-18 -21 -51.5 -43.5t-79 -41t-101 -30.5t-117.5 -13l-37 -240q-3 -16 -14 -16h-10zM194 412q0 -93 25 -167t72 -126t113.5 -80.5t150.5 -30.5l150 968q-117 0 -211.5 -40t-161 -113.5t-102.5 -177.5t-36 -233z" />
<glyph unicode="&#xa3;" d="M844 660q-3 -12 -16 -12h-518l-46 -378q-6 -51 -20 -90t-36 -68.5t-52.5 -52t-70.5 -40.5q19 2 35.5 2.5t35.5 0.5h882v-10q0 -5 -5 -8.5t-11 -3.5h-976l2 22q37 16 69.5 35t57 47t41.5 68t24 98l46 378h-186l1 8q1 12 15 12h172l40 324q11 92 47 170t94 134.5t136.5 88 t174.5 31.5q78 0 133.5 -18t94 -48t61.5 -70.5t37 -85.5l-5 -1q-8 -2 -10 -2q-7 0 -11 11q-15 36 -35.5 71t-54 62t-85 44t-127.5 17q-90 0 -163.5 -30t-128.5 -83.5t-89 -128t-45 -162.5l-40 -324h532v-8v0z" />
<glyph unicode="&#xa4;" d="M290 670q0 66 23.5 124t65.5 103l-157 157l14 14l157 -157q45 42 103 66.5t124 24.5t124.5 -24t103.5 -66l156 156l14 -14l-156 -156q42 -45 66 -103.5t24 -124.5t-24.5 -124t-66.5 -103l157 -157l-14 -14l-157 157q-45 -42 -103 -65.5t-124 -23.5t-123.5 24t-102.5 66 l-158 -158l-14 14l158 158q-42 45 -66 102.5t-24 123.5zM310 670q0 -64 24.5 -120.5t66.5 -98.5t98.5 -66.5t120.5 -24.5t121 24.5t99.5 66.5t67 98.5t24.5 120.5t-24.5 121t-67 99.5t-99.5 67t-121 24.5t-120.5 -24.5t-98.5 -67t-66.5 -99.5t-24.5 -121z" />
<glyph unicode="&#xa5;" d="M188 608h381l-337 792h20q9 0 12 -8l314 -750q7 -17 11 -31l7.5 15t9.5 16l498 750q4 5 7.5 6.5t8.5 1.5h20l-533 -792h381l-2 -20h-389l-15 -128h388l-2 -20h-389l-53 -440h-24l53 440h-387l2 20h388l15 128h-387z" />
<glyph unicode="&#xa6;" horiz-adv-x="600" d="M230 1502h20v-762h-20v762zM230 402h20v-762h-20v762z" />
<glyph unicode="&#xa7;" horiz-adv-x="918" d="M838 1314q-3 -6 -10 -6q-8 0 -21 13.5t-38 30t-64.5 30.5t-100.5 14t-113 -20.5t-90.5 -55t-60.5 -80t-22 -94.5q0 -47 20.5 -81.5t54.5 -63t77 -51.5t88 -46.5t88 -49t77 -58t54.5 -74t20.5 -96.5q0 -97 -49.5 -163t-134.5 -107q42 -34 67 -76.5t25 -99.5 q0 -63 -23 -120.5t-66.5 -101t-105 -69t-137.5 -25.5q-48 0 -85.5 8.5t-68.5 23.5t-56.5 37t-49.5 49l6 6q3 3 5 4.5t7 1.5q8 0 22.5 -17t41.5 -38t70.5 -38t109.5 -17q73 0 130 23.5t96.5 64t60.5 93t21 111.5q0 50 -22 88t-58 68.5t-81.5 55.5t-93.5 49t-93.5 49.5 t-81.5 56.5t-58 70t-22 91q0 39 11.5 76.5t37.5 71t68 62.5t104 53q-44 32 -71.5 74t-27.5 101q0 54 24 103.5t66 87.5t99 60.5t123 22.5q75 0 130.5 -22.5t103.5 -73.5zM196 708q0 -45 19.5 -79.5t52 -63t74.5 -52t86.5 -46.5t89 -47t81.5 -52q96 45 136.5 108t40.5 146 q0 48 -17 84.5t-46 66t-66.5 52.5t-78 44.5t-81.5 42t-76 44.5q-60 -25 -101 -53t-66.5 -58.5t-36.5 -64.5t-11 -72z" />
<glyph unicode="&#xa8;" horiz-adv-x="516" d="M252 1302q0 -21 -17.5 -37.5t-38.5 -16.5q-23 0 -39.5 16.5t-16.5 37.5q0 23 16.5 39.5t39.5 16.5q21 0 38.5 -16.5t17.5 -39.5zM580 1302q0 -21 -17.5 -37.5t-38.5 -16.5q-23 0 -39.5 16.5t-16.5 37.5q0 23 16.5 39.5t39.5 16.5q21 0 38.5 -16.5t17.5 -39.5z" />
<glyph unicode="&#xa9;" horiz-adv-x="1628" d="M1156 384q4 3 8 3t8 -6q2 -3 4 -5q-30 -26 -63.5 -48t-74 -38t-88.5 -25t-106 -9q-95 0 -174.5 31t-137 88.5t-90 139.5t-32.5 185q0 100 32.5 182t91.5 140.5t141.5 91t182.5 32.5q51 0 92 -6.5t76.5 -19t67.5 -32t64 -44.5q-5 -8 -7 -9t-7 -1q-6 0 -23 14.5t-50 31.5 t-85 31.5t-128 14.5q-94 0 -172 -29.5t-134 -85t-87 -134.5t-31 -177q0 -100 31 -178.5t85.5 -133t129.5 -83.5t164 -29q57 0 101.5 7t81 20.5t67.5 34t62 46.5zM120 700q0 148 56 278t153 227t227 153t278 56t278 -56t227 -153t153 -227t56 -278t-56 -278t-153 -227 t-227 -153t-278 -56t-278 56t-227 153t-153 227t-56 278zM144 700q0 -143 54 -269t147.5 -219.5t219.5 -147.5t269 -54q95 0 183.5 24.5t165.5 69.5t140 108t108.5 139.5t70 164.5t24.5 184q0 95 -24.5 183.5t-70 165.5t-108.5 140t-140 108.5t-165.5 70t-183.5 24.5 q-96 0 -184 -24.5t-164.5 -70t-139.5 -108.5t-108 -140t-69.5 -165.5t-24.5 -183.5z" />
<glyph unicode="&#xaa;" horiz-adv-x="608" d="M530 838q-8 0 -8 10l7 88q-54 -50 -108.5 -79t-124.5 -29q-25 0 -48.5 7t-41.5 22t-29 38t-11 55q0 87 93 139.5t295 56.5l8 64q3 24 3 45q0 70 -33.5 103.5t-97.5 33.5q-43 0 -74.5 -12.5t-53.5 -27.5t-35 -27.5t-19 -12.5q-8 0 -10 10q45 45 92 67.5t104 22.5 q40 0 68.5 -13t46.5 -35t26 -51.5t8 -62.5q0 -21 -3 -40l-46 -372h-8zM300 848q38 0 70 9t60 24.5t53 36t49 42.5l20 166q-186 -6 -275 -49.5t-89 -122.5q0 -28 9.5 -48t25 -33t35.5 -19t42 -6z" />
<glyph unicode="&#xab;" horiz-adv-x="770" d="M158 508v4l262 370l6 -4q4 -4 4 -10q0 -7 -6 -14l-226 -322q-15 -20 -20 -22q6 -4 14 -22l148 -322q3 -6 3 -11q0 -8 -7 -13l-8 -4zM362 508v4l262 370l6 -4q4 -4 4 -10q0 -7 -6 -14l-226 -322q-15 -20 -20 -22q6 -4 14 -22l148 -322q3 -6 3 -11q0 -8 -7 -13l-8 -4z" />
<glyph unicode="&#xac;" d="M202 680h802l-40 -320h-22l37 300h-779z" />
<glyph unicode="&#xad;" horiz-adv-x="588" d="M106 598h404l-2 -20h-406z" />
<glyph unicode="&#xae;" horiz-adv-x="1628" d="M130 700q0 148 56 278t153 227t227 153t278 56t278 -56t227 -153t153 -227t56 -278t-56 -278t-153 -227t-227 -153t-278 -56t-278 56t-227 153t-153 227t-56 278zM154 700q0 -143 54 -269t147.5 -219.5t219.5 -147.5t269 -54q95 0 183.5 24.5t165.5 69.5t140 108 t108.5 139.5t70 164.5t24.5 184q0 95 -24.5 183.5t-70 165.5t-108.5 140t-140 108.5t-165.5 70t-183.5 24.5q-96 0 -184 -24.5t-164.5 -70t-139.5 -108.5t-108 -140t-69.5 -165.5t-24.5 -183.5zM628 684v-424h-24v880h212q137 0 211.5 -53.5t74.5 -166.5q0 -53 -20 -95.5 t-57 -73t-88 -47.5t-113 -20q9 -4 16.5 -10.5t15.5 -15.5l334 -398h-20q-5 0 -8 1t-8 7l-330 394q-8 9 -19.5 15.5t-40.5 6.5h-136zM628 704h176q130 0 202 56t72 160q0 106 -65.5 153t-196.5 47h-188v-416z" />
<glyph unicode="&#xaf;" horiz-adv-x="516" d="M118 1290h480l-2 -20h-480z" />
<glyph unicode="&#xb0;" horiz-adv-x="748" d="M178 1140q0 58 22.5 108t60.5 87.5t88.5 59t106.5 21.5q58 0 109.5 -21.5t89 -59t59.5 -87.5t22 -108t-22 -108.5t-59.5 -88t-89 -59.5t-109.5 -22q-56 0 -106.5 22t-88.5 59.5t-60.5 88t-22.5 108.5zM198 1140q0 -53 20.5 -100t55.5 -81.5t82 -54.5t100 -20t100 20 t81.5 54.5t54.5 81.5t20 100t-20 100t-54.5 81.5t-81.5 54.5t-100 20t-100 -20t-82 -54.5t-55.5 -81.5t-20.5 -100z" />
<glyph unicode="&#xb1;" d="M664 1110l-53 -430h453l-2 -20h-453l-53 -432h-20l53 432h-449l2 20h449l53 430h20zM70 100h922l-2 -20h-922z" />
<glyph unicode="&#xb2;" horiz-adv-x="660" d="M472 1610q34 0 65.5 -9.5t55.5 -29.5t38.5 -50.5t14.5 -72.5q0 -45 -15.5 -82.5t-41 -71.5t-60 -66t-71.5 -66l-273 -246q23 4 63 4h344q8 0 8 -8q0 -2 -0.5 -4t-0.5 -4q-1 -3 -1 -4h-442l2 10q1 5 6 10l280 252q37 34 70 65.5t57.5 64t38.5 68t14 76.5q0 37 -13 64.5 t-34.5 45t-49.5 26t-59 8.5q-75 0 -127 -42.5t-77 -113.5q-4 -10 -16 -10l-10 2q23 86 86 135t148 49z" />
<glyph unicode="&#xb3;" horiz-adv-x="660" d="M488 1610q34 0 65.5 -9t55 -28t37.5 -48t14 -69q0 -41 -14.5 -74t-39 -57.5t-56 -40t-65.5 -21.5q75 -10 113 -51.5t38 -101.5q0 -45 -19.5 -84.5t-52.5 -69.5t-78 -47t-96 -17q-62 0 -100 17.5t-59.5 43.5t-31 57t-13.5 58l10 4q4 2 6 2q3 0 6 -2.5t4 -7.5q0 -1 0.5 -3 t0.5 -4q2 -12 8 -36.5t24.5 -49t53 -43t93.5 -18.5q52 0 93 18t69.5 46.5t43 63.5t14.5 68q0 31 -10.5 57.5t-34 46t-61 31t-90.5 11.5l2 16q50 1 90.5 15t69 38t43.5 57t15 74q0 36 -12 62t-33 43t-48.5 25t-58.5 8q-75 0 -126.5 -41.5t-77.5 -114.5q-4 -10 -14 -10l-12 2 q23 86 86 135t148 49z" />
<glyph unicode="&#xb4;" horiz-adv-x="516" d="M528 1416l-218 -250q-5 -8 -16 -8h-14l180 236q11 14 19 18t23 4h26z" />
<glyph unicode="&#xb5;" horiz-adv-x="972" d="M222 980l-82 -671q-1 -9 -1 -18v-18q0 -128 58 -198.5t181 -70.5q104 0 200 61t176 168l94 747h22l-120 -980h-6q-8 0 -10 3.5t-2 12.5l19 186q-38 -50 -81.5 -90t-91.5 -68.5t-99.5 -44t-104.5 -15.5q-119 0 -180 61t-69 174q-2 -17 -4 -36.5t-5 -48t-7.5 -69t-11.5 -99 t-16.5 -139t-22.5 -187.5h-12q-8 0 -10 3.5t-2 8.5l164 1328h24z" />
<glyph unicode="&#xb6;" horiz-adv-x="1200" d="M1260 1400l-2 -22h-231l-191 -1558h-24l191 1558h-372l-191 -1558h-24l112 912q-90 0 -163 20t-124 59t-79 95.5t-28 129.5q0 82 33.5 149.5t95.5 115t150 73.5t197 26h650z" />
<glyph unicode="&#xb7;" horiz-adv-x="520" d="M230 590q0 26 17.5 44t40.5 18q26 0 44 -18t18 -44q0 -23 -18 -40.5t-44 -17.5q-23 0 -40.5 17.5t-17.5 40.5z" />
<glyph unicode="&#xb8;" horiz-adv-x="516" d="M38 -296q4 0 11.5 -7t21 -15t34.5 -15t53 -7q60 0 95 30.5t35 81.5q0 27 -12.5 44.5t-35 29t-52.5 17.5t-64 11l54 126h16l-45 -110q36 -6 65.5 -14.5t51 -22t33 -32t11.5 -45.5q0 -32 -12.5 -56.5t-34 -42t-50.5 -26.5t-63 -9q-38 0 -73 14.5t-53 37.5l4 4q6 6 10 6z " />
<glyph unicode="&#xb9;" horiz-adv-x="660" d="M256 918h168l78 626l7 32l-195 -158q-3 -3 -7 -3t-7 3l-6 10l222 178h16l-84 -688h162l-2 -18h-354z" />
<glyph unicode="&#xba;" horiz-adv-x="676" d="M452 1412q52 0 91.5 -17.5t66.5 -49.5t40.5 -77t13.5 -100q0 -77 -19.5 -140t-56 -108t-89 -69.5t-119.5 -24.5q-53 0 -93 17.5t-67 49t-40.5 76t-13.5 99.5q0 77 19.5 140.5t56 108.5t89.5 70t121 25zM382 842q64 0 113 24t82.5 67t51 103t17.5 132q0 50 -12.5 92 t-37 72t-61 47t-85.5 17q-65 0 -114 -24.5t-82.5 -68t-50.5 -103.5t-17 -132q0 -50 12 -91.5t36.5 -71.5t61 -46.5t86.5 -16.5z" />
<glyph unicode="&#xbb;" horiz-adv-x="770" d="M146 138l-6 4q-5 3 -5 10q0 6 5 14l228 322q6 10 10.5 15t7.5 7q-6 3 -14 22l-148 322q-2 4 -2 10q0 8 8 14l6 4l170 -370v-4zM350 138l-6 4q-5 3 -5 10q0 6 5 14l228 322q6 10 10.5 15t7.5 7q-6 3 -14 22l-148 322q-2 4 -2 10q0 8 8 14l6 4l170 -370v-4z" />
<glyph unicode="&#xbc;" horiz-adv-x="1475" d="M1226 230h142v-10q-2 -5 -4 -6.5t-8 -1.5h-132l-26 -212h-22l26 212h-342q-12 0 -12 6v10l418 474h18zM1256 646q1 5 1.5 11t2.5 12l-385 -439h329zM401 12q-5 -8 -11 -10t-12 -2h-10l892 1388q6 12 21 12h12zM232 716h168l78 626q1 6 3 16.5t4 15.5l-193 -156 q-6 -5 -10 -5q-5 0 -6 3l-6 10l222 178h16l-84 -688h162l-2 -18h-354z" />
<glyph unicode="&#xbd;" horiz-adv-x="1475" d="M351 12q-5 -8 -11 -10t-12 -2h-10l892 1388q6 12 21 12h12zM1162 710q34 0 65.5 -9.5t55.5 -29.5t38.5 -50.5t14.5 -72.5q0 -45 -15.5 -82.5t-41 -71.5t-60 -66t-71.5 -66l-273 -246q23 4 63 4h344q8 0 8 -8l-2 -12h-442v8q4 8 8 12l280 252q37 34 70 65.5t57.5 64 t38.5 68t14 76.5q0 37 -13 64.5t-34.5 45t-49.5 26t-59 8.5q-38 0 -70.5 -11.5t-58.5 -32.5t-45.5 -49.5t-30.5 -62.5q-3 -10 -12 -10q-3 0 -8 1l-5 1q23 86 86 135t148 49zM232 716h168l78 626q1 6 3 16.5t4 15.5l-193 -156q-6 -5 -10 -5q-5 0 -6 3l-6 10l222 178h16 l-84 -688h162l-2 -18h-354z" />
<glyph unicode="&#xbe;" horiz-adv-x="1475" d="M1246 230h142v-10q-2 -5 -4 -6.5t-8 -1.5h-132l-26 -212h-22l26 212h-342q-12 0 -12 6v10l418 474h18zM1276 646q1 5 1.5 11t2.5 12l-385 -439h329zM482 1408q34 0 65.5 -9t55 -28t37.5 -48t14 -69q0 -41 -14.5 -74t-39 -57.5t-56 -40t-65.5 -21.5q75 -10 113 -51.5 t38 -101.5q0 -45 -19.5 -84.5t-52.5 -69.5t-78 -47t-96 -17q-62 0 -100 17.5t-59.5 43.5t-31 57t-13.5 58l7 3q5 2 10 2q8 0 9 -9q2 -21 10.5 -48t28 -50.5t53.5 -39.5t88 -16q52 0 93 18t69.5 46.5t43 63.5t14.5 68q0 31 -10.5 57.5t-34 46t-61 31t-90.5 11.5l2 16 q50 1 90.5 15t69 38t43.5 57t15 74q0 36 -12 62t-33 43t-48.5 25t-58.5 8q-75 0 -128 -43t-77 -113q-4 -10 -11 -10h-3t-6 1l-5 1q23 86 86 135t148 49zM431 12q-5 -8 -11 -10t-12 -2h-10l892 1388q6 12 21 12h12z" />
<glyph unicode="&#xbf;" horiz-adv-x="640" d="M522 -234q-26 -26 -57 -50t-68 -43.5t-79.5 -31t-91.5 -11.5q-53 0 -100.5 17.5t-83.5 50t-57 79t-21 105.5q0 83 25.5 141.5t64.5 100.5t85 72.5t86.5 58t70.5 56t36 67.5l28 172h14l-20 -174q-5 -42 -34 -72t-69.5 -57.5t-87 -57.5t-85.5 -70.5t-64.5 -97t-25.5 -137.5 q0 -55 19.5 -98.5t52.5 -73.5t76.5 -46t91.5 -16q65 0 116 20t86.5 44t55.5 44t24 20q3 0 3.5 -1t2.5 -3zM350 930q0 27 18.5 46.5t45.5 19.5t46.5 -19.5t19.5 -46.5t-19.5 -45.5t-46.5 -18.5t-45.5 18.5t-18.5 45.5z" />
<glyph unicode="&#xc0;" horiz-adv-x="1132" d="M1054 0h-18q-9 0 -12 10l-121 468h-677l-236 -468q-5 -10 -16 -10h-16l710 1400h20zM236 498h662l-214 828q-3 11 -5.5 20.5t-4.5 21.5q-5 -11 -10 -21t-10 -21zM498 1760q17 0 23.5 -3t14.5 -11l196 -208h-12q-7 0 -16 6l-240 216h34z" />
<glyph unicode="&#xc1;" horiz-adv-x="1132" d="M1054 0h-18q-9 0 -12 10l-121 468h-677l-236 -468q-5 -10 -16 -10h-16l710 1400h20zM236 498h662l-214 828q-3 11 -5.5 20.5t-4.5 21.5q-5 -11 -10 -21t-10 -21zM950 1760l-294 -216q-9 -6 -18 -6h-12l248 208q9 8 17 11t23 3h36z" />
<glyph unicode="&#xc2;" horiz-adv-x="1132" d="M1054 0h-18q-9 0 -12 10l-121 468h-677l-236 -468q-5 -10 -16 -10h-16l710 1400h20zM236 498h662l-214 828q-3 11 -5.5 20.5t-4.5 21.5q-5 -11 -10 -21t-10 -21zM906 1538h-20q-3 0 -8 1.5t-8 6.5l-160 160q-3 1 -4 4q-1 -2 -2 -2.5t-2 -1.5l-200 -160q-5 -5 -10 -6.5 t-10 -1.5h-20l238 190h16z" />
<glyph unicode="&#xc3;" horiz-adv-x="1132" d="M1054 0h-18q-9 0 -12 10l-121 468h-677l-236 -468q-5 -10 -16 -10h-16l710 1400h20zM236 498h662l-214 828q-3 11 -5.5 20.5t-4.5 21.5q-5 -11 -10 -21t-10 -21zM808 1576q45 0 71.5 33t34.5 81h16q-4 -27 -13.5 -51.5t-24.5 -42.5t-36.5 -29t-49.5 -11q-30 0 -53.5 18 t-45.5 40t-44 40t-49 18q-23 0 -40.5 -9t-31 -24.5t-22 -36.5t-12.5 -44h-18q4 27 14 51.5t26 42.5t37.5 29t48.5 11q31 0 54.5 -18t45 -40t43.5 -40t49 -18z" />
<glyph unicode="&#xc4;" horiz-adv-x="1132" d="M1054 0h-18q-9 0 -12 10l-121 468h-677l-236 -468q-5 -10 -16 -10h-16l710 1400h20zM236 498h662l-214 828q-3 11 -5.5 20.5t-4.5 21.5q-5 -11 -10 -21t-10 -21zM592 1664q0 -21 -17.5 -37.5t-38.5 -16.5q-23 0 -39.5 16.5t-16.5 37.5q0 23 16.5 39.5t39.5 16.5 q21 0 38.5 -16.5t17.5 -39.5zM920 1664q0 -21 -17.5 -37.5t-38.5 -16.5q-23 0 -39.5 16.5t-16.5 37.5q0 23 16.5 39.5t39.5 16.5q21 0 38.5 -16.5t17.5 -39.5z" />
<glyph unicode="&#xc5;" horiz-adv-x="1132" d="M1054 0h-18q-9 0 -12 10l-121 468h-677l-236 -468q-5 -10 -16 -10h-16l710 1400h20zM236 498h662l-214 828q-3 11 -5.5 20.5t-4.5 21.5q-5 -11 -10 -21t-10 -21zM540 1604q0 31 11.5 57t31.5 45.5t47 30.5t58 11t58 -11t47 -30.5t31.5 -45.5t11.5 -57t-11.5 -57 t-31.5 -45.5t-47 -30.5t-58 -11t-58 11t-47 30.5t-31.5 45.5t-11.5 57zM562 1604q0 -27 9.5 -50t26.5 -40t40 -26.5t50 -9.5t50 9.5t40 26.5t26.5 40t9.5 50t-9.5 50t-26.5 40t-40 26.5t-50 9.5t-50 -9.5t-40 -26.5t-26.5 -40t-9.5 -50z" />
<glyph unicode="&#xc6;" horiz-adv-x="1692" d="M1670 1378h-802v-656h612l-4 -22h-608v-678h638l-6 -22h-654v478h-581l-303 -468q-7 -10 -16 -10h-18l910 1400h834zM278 498h568v880q-6 -14 -13 -25.5t-17 -26.5z" />
<glyph unicode="&#xc7;" horiz-adv-x="1295" d="M532 -296q4 0 11.5 -7t21 -15t34.5 -15t53 -7q60 0 95 30.5t35 81.5q0 27 -12.5 44.5t-35 29t-52.5 17.5t-64 11l47 111q-114 2 -207.5 45.5t-160 122.5t-103 189.5t-36.5 247.5q0 184 54.5 336.5t150.5 261t226.5 168.5t282.5 60q70 0 125 -10t101 -30.5t86 -51.5 t80 -72l-4 -6q-4 -4 -12 -4t-29 24t-63.5 53t-111.5 53t-174 24q-145 0 -270.5 -56.5t-218.5 -161.5t-146 -254t-53 -334q0 -135 36.5 -243.5t102.5 -184.5t157.5 -117t201.5 -41q79 0 143 13.5t114 34.5t87 44.5t62 44.5t39.5 34.5t19.5 13.5q2 0 4 -2l9 -9 q-46 -43 -96.5 -78.5t-109 -61t-125.5 -40t-146 -14.5l-38 -94q36 -6 65.5 -14.5t51 -22t33 -32t11.5 -45.5q0 -32 -12.5 -56.5t-34 -42t-50.5 -26.5t-63 -9q-38 0 -73 14.5t-53 37.5l4 4q6 6 10 6z" />
<glyph unicode="&#xc8;" horiz-adv-x="1104" d="M1086 1400l-4 -22h-729l-81 -656h620l-4 -22h-618l-84 -678h732l-4 -22h-754l172 1400h754zM548 1760q17 0 23.5 -3t14.5 -11l196 -208h-12q-7 0 -16 6l-240 216h34z" />
<glyph unicode="&#xc9;" horiz-adv-x="1104" d="M1086 1400l-4 -22h-729l-81 -656h620l-4 -22h-618l-84 -678h732l-4 -22h-754l172 1400h754zM1000 1760l-294 -216q-9 -6 -18 -6h-12l248 208q9 8 17 11t23 3h36z" />
<glyph unicode="&#xca;" horiz-adv-x="1104" d="M1086 1400l-4 -22h-729l-81 -656h620l-4 -22h-618l-84 -678h732l-4 -22h-754l172 1400h754zM956 1538h-20q-3 0 -8 1.5t-8 6.5l-160 160q-3 1 -4 4q-1 -2 -2 -2.5t-2 -1.5l-200 -160q-5 -5 -10 -6.5t-10 -1.5h-20l238 190h16z" />
<glyph unicode="&#xcb;" horiz-adv-x="1104" d="M1086 1400l-4 -22h-729l-81 -656h620l-4 -22h-618l-84 -678h732l-4 -22h-754l172 1400h754zM642 1664q0 -21 -17.5 -37.5t-38.5 -16.5q-23 0 -39.5 16.5t-16.5 37.5q0 23 16.5 39.5t39.5 16.5q21 0 38.5 -16.5t17.5 -39.5zM970 1664q0 -21 -17.5 -37.5t-38.5 -16.5 q-23 0 -39.5 16.5t-16.5 37.5q0 23 16.5 39.5t39.5 16.5q21 0 38.5 -16.5t17.5 -39.5z" />
<glyph unicode="&#xcc;" horiz-adv-x="536" d="M220 0h-24l172 1400h24zM200 1760q17 0 23.5 -3t14.5 -11l196 -208h-12q-7 0 -16 6l-240 216h34z" />
<glyph unicode="&#xcd;" horiz-adv-x="536" d="M220 0h-24l172 1400h24zM652 1760l-294 -216q-9 -6 -18 -6h-12l248 208q9 8 17 11t23 3h36z" />
<glyph unicode="&#xce;" horiz-adv-x="536" d="M220 0h-24l172 1400h24zM608 1538h-20q-3 0 -8 1.5t-8 6.5l-160 160q-3 1 -4 4q-1 -2 -2 -2.5t-2 -1.5l-200 -160q-5 -5 -10 -6.5t-10 -1.5h-20l238 190h16z" />
<glyph unicode="&#xcf;" horiz-adv-x="536" d="M220 0h-24l172 1400h24zM294 1664q0 -21 -17.5 -37.5t-38.5 -16.5q-23 0 -39.5 16.5t-16.5 37.5q0 23 16.5 39.5t39.5 16.5q21 0 38.5 -16.5t17.5 -39.5zM622 1664q0 -21 -17.5 -37.5t-38.5 -16.5q-23 0 -39.5 16.5t-16.5 37.5q0 23 16.5 39.5t39.5 16.5q21 0 38.5 -16.5 t17.5 -39.5z" />
<glyph unicode="&#xd0;" horiz-adv-x="1446" d="M72 722h214l84 678h460q118 0 214 -40.5t163.5 -116.5t104 -185t36.5 -246q0 -191 -52 -341.5t-144.5 -255t-219 -160t-274.5 -55.5h-460l86 702h-214zM1322 812q0 133 -35 238.5t-99.5 179t-156 112t-203.5 38.5h-438l-81 -658h391l-2 -20h-391l-83 -682h436 q142 0 263.5 53t210 154.5t138.5 249t50 335.5z" />
<glyph unicode="&#xd1;" horiz-adv-x="1390" d="M340 1400q7 0 12 -8l745 -1349v10.5t1 10.5l164 1336h20l-172 -1400h-4q-7 0 -14 10l-746 1352q-1 -5 -1 -9t-0.5 -8t-0.5 -7l-164 -1338h-20l172 1400h8v0zM940 1576q45 0 71.5 33t34.5 81h16q-4 -27 -13.5 -51.5t-24.5 -42.5t-36.5 -29t-49.5 -11q-30 0 -53.5 18 t-45.5 40t-44 40t-49 18q-23 0 -40.5 -9t-31 -24.5t-22 -36.5t-12.5 -44h-18q4 27 14 51.5t26 42.5t37.5 29t48.5 11q31 0 54.5 -18t45 -40t43.5 -40t49 -18z" />
<glyph unicode="&#xd2;" horiz-adv-x="1466" d="M1368 814q0 -191 -53 -344t-146 -260.5t-220 -165.5t-275 -58q-118 0 -213 42.5t-162.5 120.5t-104 189t-36.5 248q0 126 24 237t68.5 203t107 164.5t139.5 122.5t166 76.5t187 26.5q118 0 214 -42.5t163.5 -121t104 -190t36.5 -248.5zM1342 814q0 134 -35 242 t-99.5 183.5t-156 116t-203.5 40.5q-93 0 -178.5 -25t-159.5 -73t-134.5 -118.5t-103.5 -160t-66.5 -198t-23.5 -233.5q0 -134 35.5 -242t100.5 -183.5t156 -116t202 -40.5q142 0 264 55.5t211.5 160t140 254.5t50.5 338zM662 1760q17 0 23.5 -3t14.5 -11l196 -208h-12 q-7 0 -16 6l-240 216h34z" />
<glyph unicode="&#xd3;" horiz-adv-x="1466" d="M1368 814q0 -191 -53 -344t-146 -260.5t-220 -165.5t-275 -58q-118 0 -213 42.5t-162.5 120.5t-104 189t-36.5 248q0 126 24 237t68.5 203t107 164.5t139.5 122.5t166 76.5t187 26.5q118 0 214 -42.5t163.5 -121t104 -190t36.5 -248.5zM1342 814q0 134 -35 242 t-99.5 183.5t-156 116t-203.5 40.5q-93 0 -178.5 -25t-159.5 -73t-134.5 -118.5t-103.5 -160t-66.5 -198t-23.5 -233.5q0 -134 35.5 -242t100.5 -183.5t156 -116t202 -40.5q142 0 264 55.5t211.5 160t140 254.5t50.5 338zM1114 1760l-294 -216q-9 -6 -18 -6h-12l248 208 q9 8 17 11t23 3h36z" />
<glyph unicode="&#xd4;" horiz-adv-x="1466" d="M1368 814q0 -191 -53 -344t-146 -260.5t-220 -165.5t-275 -58q-118 0 -213 42.5t-162.5 120.5t-104 189t-36.5 248q0 126 24 237t68.5 203t107 164.5t139.5 122.5t166 76.5t187 26.5q118 0 214 -42.5t163.5 -121t104 -190t36.5 -248.5zM1342 814q0 134 -35 242 t-99.5 183.5t-156 116t-203.5 40.5q-93 0 -178.5 -25t-159.5 -73t-134.5 -118.5t-103.5 -160t-66.5 -198t-23.5 -233.5q0 -134 35.5 -242t100.5 -183.5t156 -116t202 -40.5q142 0 264 55.5t211.5 160t140 254.5t50.5 338zM1070 1538h-20q-3 0 -8 1.5t-8 6.5l-160 160 q-3 1 -4 4q-1 -2 -2 -2.5t-2 -1.5l-200 -160q-5 -5 -10 -6.5t-10 -1.5h-20l238 190h16z" />
<glyph unicode="&#xd5;" horiz-adv-x="1466" d="M1368 814q0 -191 -53 -344t-146 -260.5t-220 -165.5t-275 -58q-118 0 -213 42.5t-162.5 120.5t-104 189t-36.5 248q0 126 24 237t68.5 203t107 164.5t139.5 122.5t166 76.5t187 26.5q118 0 214 -42.5t163.5 -121t104 -190t36.5 -248.5zM1342 814q0 134 -35 242 t-99.5 183.5t-156 116t-203.5 40.5q-93 0 -178.5 -25t-159.5 -73t-134.5 -118.5t-103.5 -160t-66.5 -198t-23.5 -233.5q0 -134 35.5 -242t100.5 -183.5t156 -116t202 -40.5q142 0 264 55.5t211.5 160t140 254.5t50.5 338zM972 1576q45 0 71.5 33t34.5 81h16 q-4 -27 -13.5 -51.5t-24.5 -42.5t-36.5 -29t-49.5 -11q-30 0 -53.5 18t-45.5 40t-44 40t-49 18q-23 0 -40.5 -9t-31 -24.5t-22 -36.5t-12.5 -44h-18q4 27 14 51.5t26 42.5t37.5 29t48.5 11q31 0 54.5 -18t45 -40t43.5 -40t49 -18z" />
<glyph unicode="&#xd6;" horiz-adv-x="1466" d="M1368 814q0 -191 -53 -344t-146 -260.5t-220 -165.5t-275 -58q-118 0 -213 42.5t-162.5 120.5t-104 189t-36.5 248q0 126 24 237t68.5 203t107 164.5t139.5 122.5t166 76.5t187 26.5q118 0 214 -42.5t163.5 -121t104 -190t36.5 -248.5zM1342 814q0 134 -35 242 t-99.5 183.5t-156 116t-203.5 40.5q-93 0 -178.5 -25t-159.5 -73t-134.5 -118.5t-103.5 -160t-66.5 -198t-23.5 -233.5q0 -134 35.5 -242t100.5 -183.5t156 -116t202 -40.5q142 0 264 55.5t211.5 160t140 254.5t50.5 338zM756 1664q0 -21 -17.5 -37.5t-38.5 -16.5 q-23 0 -39.5 16.5t-16.5 37.5q0 23 16.5 39.5t39.5 16.5q21 0 38.5 -16.5t17.5 -39.5zM1084 1664q0 -21 -17.5 -37.5t-38.5 -16.5q-23 0 -39.5 16.5t-16.5 37.5q0 23 16.5 39.5t39.5 16.5q21 0 38.5 -16.5t17.5 -39.5z" />
<glyph unicode="&#xd7;" d="M1052 1056l-435 -386l339 -388l-14 -14l-342 387l-438 -389l-12 14l437 390l-341 388l18 16l340 -389l434 387z" />
<glyph unicode="&#xd8;" horiz-adv-x="1464" d="M1368 814q0 -191 -53 -344t-146 -260.5t-220 -165.5t-275 -58q-110 0 -199.5 36t-156.5 105l-176 -217q-5 -7 -11.5 -9.5t-12.5 -2.5h-12l198 244q-70 79 -108 191t-38 253q0 126 24 237t68.5 203t107 164.5t139.5 122.5t166 76.5t187 26.5q114 0 206 -39t160 -112 l152 187q9 12 22 12h14l-174 -215q66 -78 102 -188t36 -247zM182 588q0 -136 35.5 -243.5t101.5 -183.5l882 1085q-65 72 -154 111t-199 39q-93 0 -178.5 -25t-159.5 -73t-134.5 -118.5t-103.5 -160t-66.5 -198t-23.5 -233.5zM1342 814q0 131 -33 236t-95 180l-881 -1085 q65 -68 151 -103.5t192 -35.5q142 0 264 55.5t211.5 160t140 254.5t50.5 338z" />
<glyph unicode="&#xd9;" horiz-adv-x="1354" d="M618 4q103 0 190.5 40.5t153 110.5t107.5 164t55 201l108 880h24l-108 -880q-14 -111 -58.5 -208.5t-114 -171t-161.5 -116t-200 -42.5q-97 0 -172.5 35t-127 95.5t-78.5 143.5t-27 179q0 21 1 42t4 43l108 880h24l-108 -878q-2 -22 -3.5 -43t-1.5 -42q0 -92 25 -171.5 t73.5 -137.5t120.5 -91t166 -33zM610 1760q17 0 23.5 -3t14.5 -11l196 -208h-12q-7 0 -16 6l-240 216h34z" />
<glyph unicode="&#xda;" horiz-adv-x="1354" d="M618 4q103 0 190.5 40.5t153 110.5t107.5 164t55 201l108 880h24l-108 -880q-14 -111 -58.5 -208.5t-114 -171t-161.5 -116t-200 -42.5q-97 0 -172.5 35t-127 95.5t-78.5 143.5t-27 179q0 21 1 42t4 43l108 880h24l-108 -878q-2 -22 -3.5 -43t-1.5 -42q0 -92 25 -171.5 t73.5 -137.5t120.5 -91t166 -33zM1062 1760l-294 -216q-9 -6 -18 -6h-12l248 208q9 8 17 11t23 3h36z" />
<glyph unicode="&#xdb;" horiz-adv-x="1354" d="M618 4q103 0 190.5 40.5t153 110.5t107.5 164t55 201l108 880h24l-108 -880q-14 -111 -58.5 -208.5t-114 -171t-161.5 -116t-200 -42.5q-97 0 -172.5 35t-127 95.5t-78.5 143.5t-27 179q0 21 1 42t4 43l108 880h24l-108 -878q-2 -22 -3.5 -43t-1.5 -42q0 -92 25 -171.5 t73.5 -137.5t120.5 -91t166 -33zM1018 1538h-20q-3 0 -8 1.5t-8 6.5l-160 160q-3 1 -4 4q-1 -2 -2 -2.5t-2 -1.5l-200 -160q-5 -5 -10 -6.5t-10 -1.5h-20l238 190h16z" />
<glyph unicode="&#xdc;" horiz-adv-x="1354" d="M618 4q103 0 190.5 40.5t153 110.5t107.5 164t55 201l108 880h24l-108 -880q-14 -111 -58.5 -208.5t-114 -171t-161.5 -116t-200 -42.5q-97 0 -172.5 35t-127 95.5t-78.5 143.5t-27 179q0 21 1 42t4 43l108 880h24l-108 -878q-2 -22 -3.5 -43t-1.5 -42q0 -92 25 -171.5 t73.5 -137.5t120.5 -91t166 -33zM704 1664q0 -21 -17.5 -37.5t-38.5 -16.5q-23 0 -39.5 16.5t-16.5 37.5q0 23 16.5 39.5t39.5 16.5q21 0 38.5 -16.5t17.5 -39.5zM1032 1664q0 -21 -17.5 -37.5t-38.5 -16.5q-23 0 -39.5 16.5t-16.5 37.5q0 23 16.5 39.5t39.5 16.5 q21 0 38.5 -16.5t17.5 -39.5z" />
<glyph unicode="&#xdd;" horiz-adv-x="1058" d="M554 595l-74 -595h-24l74 595l-382 805h20q8 0 12 -8l352 -750q3 -6 6 -12.5t6 -14.5q5 8 9.5 14.5t8.5 12.5l536 750q5 8 14 8h20zM918 1760l-294 -216q-9 -6 -18 -6h-12l248 208q9 8 17 11t23 3h36z" />
<glyph unicode="&#xde;" horiz-adv-x="1066" d="M415 1098h269q190 0 291 -85t101 -251q0 -104 -37.5 -189t-103.5 -146.5t-155.5 -95t-193.5 -33.5h-270l-36 -298h-24l172 1400h24zM412 1078l-93 -760h269q102 0 187 33.5t146.5 92t96 139t34.5 175.5q0 155 -92.5 237.5t-279.5 82.5h-268z" />
<glyph unicode="&#xdf;" horiz-adv-x="960" d="M662 1414q60 0 108 -19t82 -51t52 -73.5t18 -86.5q0 -72 -28 -124t-69.5 -92.5t-90.5 -72.5t-90.5 -64.5t-69.5 -68.5t-28 -84q0 -47 24.5 -73.5t61 -45.5t79.5 -35t79.5 -41.5t61 -66t24.5 -106.5q0 -67 -23.5 -126t-67 -103.5t-104.5 -70.5t-137 -26q-49 0 -86.5 8.5 t-68 23.5t-56 37t-49.5 49l6 6q3 3 5 4.5t7 1.5q7 0 21.5 -17t42 -38t71 -38t109.5 -17q72 0 129 24t97 65t61 96t21 117q0 64 -24.5 102t-61 62t-79.5 40.5t-79.5 36t-61 49t-24.5 80.5t28 89.5t70 71.5t91 64.5t91 70t70 88t28 118.5q0 30 -12 67.5t-40.5 70.5t-75 55.5 t-116.5 22.5q-68 0 -135 -32.5t-123 -92.5t-95.5 -144t-52.5 -187l-116 -928l-38 -250q-2 -8 -5.5 -10t-6.5 -2h-4l143 1170l-149 4q-11 0 -11 7v5q0 2 1 4h162q13 99 52.5 185.5t98 151t131.5 102t152 37.5z" />
<glyph unicode="&#xe0;" horiz-adv-x="954" d="M722 0h-6q-7 0 -9.5 3.5t-2.5 8.5l48 418q-38 -97 -87 -178.5t-105.5 -140t-119.5 -91t-130 -32.5q-65 0 -110.5 25t-74 70t-42 107t-13.5 136q0 84 22 166t61 156t93 137t118.5 109t137 72t148.5 26q54 0 99 -10.5t87 -37.5zM310 8q64 0 126.5 33t119.5 95t108 149.5 t93 197.5l56 451q-37 20 -77 29t-86 9q-72 0 -141 -25t-131 -69t-114 -105t-90 -133t-59 -152t-21 -162q0 -73 12.5 -131.5t38.5 -100t67 -64t98 -22.5zM518 1416q15 0 22.5 -4t13.5 -18l122 -236h-14q-9 0 -14 8l-156 250h26z" />
<glyph unicode="&#xe1;" horiz-adv-x="954" d="M722 0h-6q-7 0 -9.5 3.5t-2.5 8.5l48 418q-38 -97 -87 -178.5t-105.5 -140t-119.5 -91t-130 -32.5q-65 0 -110.5 25t-74 70t-42 107t-13.5 136q0 84 22 166t61 156t93 137t118.5 109t137 72t148.5 26q54 0 99 -10.5t87 -37.5zM310 8q64 0 126.5 33t119.5 95t108 149.5 t93 197.5l56 451q-37 20 -77 29t-86 9q-72 0 -141 -25t-131 -69t-114 -105t-90 -133t-59 -152t-21 -162q0 -73 12.5 -131.5t38.5 -100t67 -64t98 -22.5zM830 1416l-218 -250q-5 -8 -16 -8h-14l180 236q11 14 19 18t23 4h26z" />
<glyph unicode="&#xe2;" horiz-adv-x="954" d="M722 0h-6q-7 0 -9.5 3.5t-2.5 8.5l48 418q-38 -97 -87 -178.5t-105.5 -140t-119.5 -91t-130 -32.5q-65 0 -110.5 25t-74 70t-42 107t-13.5 136q0 84 22 166t61 156t93 137t118.5 109t137 72t148.5 26q54 0 99 -10.5t87 -37.5zM310 8q64 0 126.5 33t119.5 95t108 149.5 t93 197.5l56 451q-37 20 -77 29t-86 9q-72 0 -141 -25t-131 -69t-114 -105t-90 -133t-59 -152t-21 -162q0 -73 12.5 -131.5t38.5 -100t67 -64t98 -22.5zM644 1400h16l166 -230h-16q-3 0 -7 1.5t-7 6.5l-142 196q-1 1 -1.5 2.5t-1.5 2.5t-1 2q-1 -2 -6 -7l-190 -196 q-3 -3 -7 -5.5t-9 -2.5h-18z" />
<glyph unicode="&#xe3;" horiz-adv-x="954" d="M722 0h-6q-7 0 -9.5 3.5t-2.5 8.5l48 418q-38 -97 -87 -178.5t-105.5 -140t-119.5 -91t-130 -32.5q-65 0 -110.5 25t-74 70t-42 107t-13.5 136q0 84 22 166t61 156t93 137t118.5 109t137 72t148.5 26q54 0 99 -10.5t87 -37.5zM310 8q64 0 126.5 33t119.5 95t108 149.5 t93 197.5l56 451q-37 20 -77 29t-86 9q-72 0 -141 -25t-131 -69t-114 -105t-90 -133t-59 -152t-21 -162q0 -73 12.5 -131.5t38.5 -100t67 -64t98 -22.5zM740 1242q47 0 72.5 33t33.5 81h16q-3 -27 -12.5 -51.5t-25 -42.5t-37 -29t-49.5 -11q-29 0 -52.5 18t-45.5 40 t-44.5 40t-49.5 18q-22 0 -40 -9t-31.5 -24.5t-22 -36.5t-12.5 -44h-16q3 27 13 51.5t26 42.5t38 29t49 11q30 0 53.5 -18t45 -40t43.5 -40t48 -18z" />
<glyph unicode="&#xe4;" horiz-adv-x="954" d="M722 0h-6q-7 0 -9.5 3.5t-2.5 8.5l48 418q-38 -97 -87 -178.5t-105.5 -140t-119.5 -91t-130 -32.5q-65 0 -110.5 25t-74 70t-42 107t-13.5 136q0 84 22 166t61 156t93 137t118.5 109t137 72t148.5 26q54 0 99 -10.5t87 -37.5zM310 8q64 0 126.5 33t119.5 95t108 149.5 t93 197.5l56 451q-37 20 -77 29t-86 9q-72 0 -141 -25t-131 -69t-114 -105t-90 -133t-59 -152t-21 -162q0 -73 12.5 -131.5t38.5 -100t67 -64t98 -22.5zM534 1302q0 -21 -17.5 -37.5t-38.5 -16.5q-23 0 -39.5 16.5t-16.5 37.5q0 23 16.5 39.5t39.5 16.5q21 0 38.5 -16.5 t17.5 -39.5zM862 1302q0 -21 -17.5 -37.5t-38.5 -16.5q-23 0 -39.5 16.5t-16.5 37.5q0 23 16.5 39.5t39.5 16.5q21 0 38.5 -16.5t17.5 -39.5z" />
<glyph unicode="&#xe5;" horiz-adv-x="954" d="M722 0h-6q-7 0 -9.5 3.5t-2.5 8.5l48 418q-38 -97 -87 -178.5t-105.5 -140t-119.5 -91t-130 -32.5q-65 0 -110.5 25t-74 70t-42 107t-13.5 136q0 84 22 166t61 156t93 137t118.5 109t137 72t148.5 26q54 0 99 -10.5t87 -37.5zM310 8q64 0 126.5 33t119.5 95t108 149.5 t93 197.5l56 451q-37 20 -77 29t-86 9q-72 0 -141 -25t-131 -69t-114 -105t-90 -133t-59 -152t-21 -162q0 -73 12.5 -131.5t38.5 -100t67 -64t98 -22.5zM512 1290q0 31 11.5 57t31.5 45.5t47 30.5t58 11t58 -11t47 -30.5t31.5 -45.5t11.5 -57t-11.5 -57t-31.5 -45.5 t-47 -30.5t-58 -11t-58 11t-47 30.5t-31.5 45.5t-11.5 57zM534 1290q0 -27 9.5 -50t26.5 -40t40 -26.5t50 -9.5t50 9.5t40 26.5t26.5 40t9.5 50t-9.5 50t-26.5 40t-40 26.5t-50 9.5t-50 -9.5t-40 -26.5t-26.5 -40t-9.5 -50z" />
<glyph unicode="&#xe6;" horiz-adv-x="1415" d="M1111 996q51 0 93.5 -14t73.5 -40t48 -62.5t17 -81.5q0 -59 -34 -109.5t-109 -87t-195 -57t-291 -20.5l-3 -21q-2 -23 -3 -47.5t-1 -49.5q0 -94 20 -168t57 -125t90 -78t119 -27q57 0 103.5 13.5t84 33.5t66 43t49.5 43t34.5 33.5t20.5 13.5q6 0 10 -4l2 -2 q-45 -50 -89.5 -86.5t-89.5 -60.5t-93 -35.5t-100 -11.5q-67 0 -120 24.5t-91.5 71t-60.5 112t-28 148.5q-12 -69 -36 -122t-56.5 -93t-71 -67.5t-78.5 -45t-78.5 -25t-71.5 -7.5q-48 0 -90.5 12t-74 38.5t-49.5 68.5t-18 103q0 79 37.5 140t114.5 103t196 65.5t281 27.5 l13 106q20 155 -30 240.5t-172 85.5q-71 0 -125 -22.5t-91.5 -49.5t-60 -49.5t-29.5 -22.5q-4 0 -10 6l-2 4q75 76 151 116t169 40q62 0 106.5 -21t72 -60.5t38.5 -96t7 -128.5q24 71 61 127.5t85 96.5t106.5 61t125.5 21zM693 522q-306 -10 -454 -87t-148 -225 q0 -54 15.5 -93t43.5 -64t66.5 -37t84.5 -12q68 0 131 25.5t113.5 73.5t84.5 115.5t45 151.5zM1111 974q-80 0 -146 -30.5t-117 -87t-84.5 -136.5t-47.5 -178q168 4 284 24.5t187 54.5t102.5 79t31.5 98q0 42 -15.5 74.5t-43 55t-66.5 34.5t-85 12z" />
<glyph unicode="&#xe7;" horiz-adv-x="856" d="M266 -296q4 0 11.5 -7t21 -15t34.5 -15t53 -7q60 0 95 30.5t35 81.5q0 27 -12.5 44.5t-35 29t-52.5 17.5t-64 11l49 114q-84 0 -144.5 29.5t-99 81t-57 121t-18.5 150.5q0 77 16 154t45.5 146.5t71.5 129t94.5 103t114.5 68.5t132 25q48 0 86.5 -9.5t69.5 -27t56 -41.5 t46 -52l-4 -4q-4 -4 -10 -4q-7 0 -21 18.5t-42 40.5t-72 40.5t-111 18.5q-97 0 -179 -52t-142 -137t-93.5 -194t-33.5 -223q0 -76 16.5 -142t52.5 -115t92 -77t135 -28q60 0 108.5 13.5t86 33.5t65.5 43t48.5 43t33.5 33.5t22 13.5q6 0 10 -4l2 -2q-53 -59 -98.5 -96 t-89 -58.5t-86 -30t-87.5 -9.5l-40 -98q36 -6 65.5 -14.5t51 -22t33 -32t11.5 -45.5q0 -32 -12.5 -56.5t-34 -42t-50.5 -26.5t-63 -9q-38 0 -73 14.5t-53 37.5l4 4q6 6 10 6z" />
<glyph unicode="&#xe8;" horiz-adv-x="870" d="M800 814q0 -39 -10.5 -74.5t-38 -67.5t-76.5 -60t-125.5 -52.5t-184.5 -45t-254 -36.5q-9 -59 -9 -116q0 -82 19 -147.5t56.5 -111.5t94 -70.5t132.5 -24.5q57 0 103.5 13.5t83.5 33.5t65.5 43t49 43t34.5 33.5t22 13.5q3 0 5 -0.5t7 -5.5q-47 -51 -91.5 -87.5 t-89.5 -60.5t-92 -35t-99 -11q-80 0 -140.5 26t-101 74t-60.5 117.5t-20 156.5q0 72 14 147.5t42 145.5t69 132t94.5 108t119 72.5t143.5 26.5q70 0 116 -19t73 -47t38 -59t11 -55zM562 974q-95 0 -170.5 -41t-132 -108t-93 -152.5t-52.5 -174.5q148 16 255 36.5t181 44.5 t119.5 51.5t70.5 57.5t33.5 61.5t8.5 64.5q0 24 -11.5 52t-37 52t-68 40t-103.5 16zM422 1416q15 0 22.5 -4t13.5 -18l122 -236h-14q-9 0 -14 8l-156 250h26z" />
<glyph unicode="&#xe9;" horiz-adv-x="870" d="M800 814q0 -39 -10.5 -74.5t-38 -67.5t-76.5 -60t-125.5 -52.5t-184.5 -45t-254 -36.5q-9 -59 -9 -116q0 -82 19 -147.5t56.5 -111.5t94 -70.5t132.5 -24.5q57 0 103.5 13.5t83.5 33.5t65.5 43t49 43t34.5 33.5t22 13.5q3 0 5 -0.5t7 -5.5q-47 -51 -91.5 -87.5 t-89.5 -60.5t-92 -35t-99 -11q-80 0 -140.5 26t-101 74t-60.5 117.5t-20 156.5q0 72 14 147.5t42 145.5t69 132t94.5 108t119 72.5t143.5 26.5q70 0 116 -19t73 -47t38 -59t11 -55zM562 974q-95 0 -170.5 -41t-132 -108t-93 -152.5t-52.5 -174.5q148 16 255 36.5t181 44.5 t119.5 51.5t70.5 57.5t33.5 61.5t8.5 64.5q0 24 -11.5 52t-37 52t-68 40t-103.5 16zM754 1416l-218 -250q-5 -8 -16 -8h-14l180 236q11 14 19 18t23 4h26z" />
<glyph unicode="&#xea;" horiz-adv-x="870" d="M800 814q0 -39 -10.5 -74.5t-38 -67.5t-76.5 -60t-125.5 -52.5t-184.5 -45t-254 -36.5q-9 -59 -9 -116q0 -82 19 -147.5t56.5 -111.5t94 -70.5t132.5 -24.5q57 0 103.5 13.5t83.5 33.5t65.5 43t49 43t34.5 33.5t22 13.5q3 0 5 -0.5t7 -5.5q-47 -51 -91.5 -87.5 t-89.5 -60.5t-92 -35t-99 -11q-80 0 -140.5 26t-101 74t-60.5 117.5t-20 156.5q0 72 14 147.5t42 145.5t69 132t94.5 108t119 72.5t143.5 26.5q70 0 116 -19t73 -47t38 -59t11 -55zM562 974q-95 0 -170.5 -41t-132 -108t-93 -152.5t-52.5 -174.5q148 16 255 36.5t181 44.5 t119.5 51.5t70.5 57.5t33.5 61.5t8.5 64.5q0 24 -11.5 52t-37 52t-68 40t-103.5 16zM588 1400h16l166 -230h-16q-3 0 -7 1.5t-7 6.5l-142 196q-1 1 -1.5 2.5t-1.5 2.5t-1 2q-1 -2 -6 -7l-190 -196q-3 -3 -7 -5.5t-9 -2.5h-18z" />
<glyph unicode="&#xeb;" horiz-adv-x="870" d="M800 814q0 -39 -10.5 -74.5t-38 -67.5t-76.5 -60t-125.5 -52.5t-184.5 -45t-254 -36.5q-9 -59 -9 -116q0 -82 19 -147.5t56.5 -111.5t94 -70.5t132.5 -24.5q57 0 103.5 13.5t83.5 33.5t65.5 43t49 43t34.5 33.5t22 13.5q3 0 5 -0.5t7 -5.5q-47 -51 -91.5 -87.5 t-89.5 -60.5t-92 -35t-99 -11q-80 0 -140.5 26t-101 74t-60.5 117.5t-20 156.5q0 72 14 147.5t42 145.5t69 132t94.5 108t119 72.5t143.5 26.5q70 0 116 -19t73 -47t38 -59t11 -55zM562 974q-95 0 -170.5 -41t-132 -108t-93 -152.5t-52.5 -174.5q148 16 255 36.5t181 44.5 t119.5 51.5t70.5 57.5t33.5 61.5t8.5 64.5q0 24 -11.5 52t-37 52t-68 40t-103.5 16zM478 1302q0 -21 -17.5 -37.5t-38.5 -16.5q-23 0 -39.5 16.5t-16.5 37.5q0 23 16.5 39.5t39.5 16.5q21 0 38.5 -16.5t17.5 -39.5zM806 1302q0 -21 -17.5 -37.5t-38.5 -16.5 q-23 0 -39.5 16.5t-16.5 37.5q0 23 16.5 39.5t39.5 16.5q21 0 38.5 -16.5t17.5 -39.5z" />
<glyph unicode="&#xec;" horiz-adv-x="426" d="M284 980l-120 -980h-22l120 980h22zM153 1416q15 0 22.5 -4t13.5 -18l122 -236h-14q-9 0 -14 8l-156 250h26z" />
<glyph unicode="&#xed;" horiz-adv-x="426" d="M284 980l-120 -980h-22l120 980h22zM485 1416l-218 -250q-5 -8 -16 -8h-14l180 236q11 14 19 18t23 4h26z" />
<glyph unicode="&#xee;" horiz-adv-x="426" d="M284 980l-120 -980h-22l120 980h22zM319 1400h16l166 -230h-16q-3 0 -7 1.5t-7 6.5l-142 196q-1 1 -1.5 2.5t-1.5 2.5t-1 2q-1 -2 -6 -7l-190 -196q-3 -3 -7 -5.5t-9 -2.5h-18z" />
<glyph unicode="&#xef;" horiz-adv-x="426" d="M284 980l-120 -980h-22l120 980h22zM209 1302q0 -21 -17.5 -37.5t-38.5 -16.5q-23 0 -39.5 16.5t-16.5 37.5q0 23 16.5 39.5t39.5 16.5q21 0 38.5 -16.5t17.5 -39.5zM537 1302q0 -21 -17.5 -37.5t-38.5 -16.5q-23 0 -39.5 16.5t-16.5 37.5q0 23 16.5 39.5t39.5 16.5 q21 0 38.5 -16.5t17.5 -39.5z" />
<glyph unicode="&#xf0;" horiz-adv-x="964" d="M519 1075q-2 2 -3 6t3 8l144 145q-58 47 -126.5 76t-143.5 42q-14 2 -11 13l2 7q77 -14 151.5 -44t139.5 -81l147 151l4 -5q2 -2 2.5 -7t-3.5 -9l-136 -140q45 -38 83 -88.5t65.5 -114t43 -142t15.5 -172.5q0 -153 -29.5 -286t-89.5 -232t-150.5 -155.5t-212.5 -56.5 q-71 0 -131 27.5t-104.5 78.5t-69.5 123t-25 161q0 109 31 206.5t89.5 171t142 116t189.5 42.5q49 0 102 -16t99.5 -51t82 -91t50.5 -136q9 108 -1.5 199t-36.5 165.5t-65.5 133.5t-90.5 103l-152 -153zM416 10q190 0 301.5 143.5t145.5 412.5q-7 57 -29.5 115.5 t-62.5 106.5t-99 78t-138 30q-103 0 -182.5 -41t-133.5 -111t-82 -163.5t-28 -198.5q0 -86 24 -155t65.5 -117t97.5 -74t121 -26z" />
<glyph unicode="&#xf1;" horiz-adv-x="998" d="M114 0l118 984h4q8 0 10 -4.5t2 -9.5l-43 -383q40 93 92 168t111.5 128.5t123.5 82t128 28.5q108 0 158.5 -68.5t50.5 -196.5q0 -23 -2 -48.5t-5 -52.5l-74 -628h-22l74 628q3 26 5 51t2 48q0 118 -45 182.5t-144 64.5q-62 0 -125.5 -30.5t-123 -87t-113 -137 t-96.5 -180.5l-64 -539h-22zM716 1244q47 0 72.5 33t33.5 81h16q-3 -27 -12.5 -51.5t-25 -42.5t-37 -29t-49.5 -11q-29 0 -52.5 18t-45.5 40t-44.5 40t-49.5 18q-22 0 -40 -9t-31.5 -24.5t-22 -36.5t-12.5 -44h-16q3 27 13 51.5t26 42.5t38 29t49 11q30 0 53.5 -18t45 -40 t43.5 -40t48 -18z" />
<glyph unicode="&#xf2;" horiz-adv-x="972" d="M422 8q99 0 180.5 50.5t139.5 133.5t90 189t32 217q0 88 -22 158t-63 119t-99 75t-130 26q-66 0 -124.5 -23t-107.5 -63.5t-88 -96t-66 -121t-41.5 -138.5t-14.5 -148q0 -88 22 -158t62.5 -119t98.5 -75t131 -26zM420 -12q-78 0 -140.5 28t-106 79.5t-66.5 125t-23 165.5 q0 77 15 152t43.5 143t69 125.5t92.5 99.5t114.5 66t133.5 24q78 0 140 -28t105.5 -80t67 -125.5t23.5 -164.5q0 -76 -15 -151t-43.5 -143t-69 -126t-92.5 -100t-114.5 -66t-133.5 -24zM422 1418q15 0 22.5 -4t13.5 -18l122 -236h-14q-9 0 -14 8l-156 250h26z" />
<glyph unicode="&#xf3;" horiz-adv-x="972" d="M422 8q99 0 180.5 50.5t139.5 133.5t90 189t32 217q0 88 -22 158t-63 119t-99 75t-130 26q-66 0 -124.5 -23t-107.5 -63.5t-88 -96t-66 -121t-41.5 -138.5t-14.5 -148q0 -88 22 -158t62.5 -119t98.5 -75t131 -26zM420 -12q-78 0 -140.5 28t-106 79.5t-66.5 125t-23 165.5 q0 77 15 152t43.5 143t69 125.5t92.5 99.5t114.5 66t133.5 24q78 0 140 -28t105.5 -80t67 -125.5t23.5 -164.5q0 -76 -15 -151t-43.5 -143t-69 -126t-92.5 -100t-114.5 -66t-133.5 -24zM754 1418l-218 -250q-5 -8 -16 -8h-14l180 236q11 14 19 18t23 4h26z" />
<glyph unicode="&#xf4;" horiz-adv-x="972" d="M422 8q99 0 180.5 50.5t139.5 133.5t90 189t32 217q0 88 -22 158t-63 119t-99 75t-130 26q-66 0 -124.5 -23t-107.5 -63.5t-88 -96t-66 -121t-41.5 -138.5t-14.5 -148q0 -88 22 -158t62.5 -119t98.5 -75t131 -26zM420 -12q-78 0 -140.5 28t-106 79.5t-66.5 125t-23 165.5 q0 77 15 152t43.5 143t69 125.5t92.5 99.5t114.5 66t133.5 24q78 0 140 -28t105.5 -80t67 -125.5t23.5 -164.5q0 -76 -15 -151t-43.5 -143t-69 -126t-92.5 -100t-114.5 -66t-133.5 -24zM588 1402h16l166 -230h-16q-3 0 -7 1.5t-7 6.5l-142 196q-1 1 -1.5 2.5t-1.5 2.5t-1 2 q-1 -2 -6 -7l-190 -196q-3 -3 -7 -5.5t-9 -2.5h-18z" />
<glyph unicode="&#xf5;" horiz-adv-x="972" d="M422 8q99 0 180.5 50.5t139.5 133.5t90 189t32 217q0 88 -22 158t-63 119t-99 75t-130 26q-66 0 -124.5 -23t-107.5 -63.5t-88 -96t-66 -121t-41.5 -138.5t-14.5 -148q0 -88 22 -158t62.5 -119t98.5 -75t131 -26zM420 -12q-78 0 -140.5 28t-106 79.5t-66.5 125t-23 165.5 q0 77 15 152t43.5 143t69 125.5t92.5 99.5t114.5 66t133.5 24q78 0 140 -28t105.5 -80t67 -125.5t23.5 -164.5q0 -76 -15 -151t-43.5 -143t-69 -126t-92.5 -100t-114.5 -66t-133.5 -24zM684 1244q47 0 72.5 33t33.5 81h16q-3 -27 -12.5 -51.5t-25 -42.5t-37 -29t-49.5 -11 q-29 0 -52.5 18t-45.5 40t-44.5 40t-49.5 18q-22 0 -40 -9t-31.5 -24.5t-22 -36.5t-12.5 -44h-16q3 27 13 51.5t26 42.5t38 29t49 11q30 0 53.5 -18t45 -40t43.5 -40t48 -18z" />
<glyph unicode="&#xf6;" horiz-adv-x="972" d="M422 8q99 0 180.5 50.5t139.5 133.5t90 189t32 217q0 88 -22 158t-63 119t-99 75t-130 26q-66 0 -124.5 -23t-107.5 -63.5t-88 -96t-66 -121t-41.5 -138.5t-14.5 -148q0 -88 22 -158t62.5 -119t98.5 -75t131 -26zM420 -12q-78 0 -140.5 28t-106 79.5t-66.5 125t-23 165.5 q0 77 15 152t43.5 143t69 125.5t92.5 99.5t114.5 66t133.5 24q78 0 140 -28t105.5 -80t67 -125.5t23.5 -164.5q0 -76 -15 -151t-43.5 -143t-69 -126t-92.5 -100t-114.5 -66t-133.5 -24zM478 1304q0 -21 -17.5 -37.5t-38.5 -16.5q-23 0 -39.5 16.5t-16.5 37.5q0 23 16.5 39.5 t39.5 16.5q21 0 38.5 -16.5t17.5 -39.5zM806 1304q0 -21 -17.5 -37.5t-38.5 -16.5q-23 0 -39.5 16.5t-16.5 37.5q0 23 16.5 39.5t39.5 16.5q21 0 38.5 -16.5t17.5 -39.5z" />
<glyph unicode="&#xf7;" d="M142 680h922l-2 -20h-922zM580 1016q0 30 21.5 52t50.5 22q26 0 42 -18t16 -42q0 -30 -22.5 -50t-51.5 -20q-26 0 -41 16.5t-15 39.5zM492 304q0 30 21.5 52t50.5 22q26 0 42 -18t16 -42q0 -30 -22 -50t-52 -20q-24 0 -40 16.5t-16 39.5z" />
<glyph unicode="&#xf8;" horiz-adv-x="972" d="M420 -12q-71 0 -128 22.5t-100 64.5l-102 -137q-9 -12 -22 -12h-14l124 165q-46 52 -70 126.5t-24 168.5q0 77 15 152t43.5 143t69 125.5t92.5 99.5t114.5 66t133.5 24q72 0 130.5 -24.5t102.5 -69.5l87 118q5 6 8.5 9t11.5 3h16l-109 -146q43 -52 66 -124.5t23 -163.5 q0 -76 -15 -151t-43.5 -143t-69 -126t-92.5 -100t-114.5 -66t-133.5 -24zM108 386q0 -88 21.5 -157.5t62.5 -118.5l579 774q-41 45 -96.5 68.5t-124.5 23.5q-66 0 -124.5 -23t-107.5 -63.5t-88 -96t-66 -121t-41.5 -138.5t-14.5 -148zM422 8q99 0 180.5 50.5t139.5 133.5 t90 189t32 217q0 85 -20.5 152.5t-58.5 116.5l-580 -773q83 -86 217 -86z" />
<glyph unicode="&#xf9;" horiz-adv-x="996" d="M232 980l-74 -624q-6 -53 -6 -99q0 -119 44.5 -184t143.5 -65q62 0 125.5 30.5t123 87.5t113 137.5t96.5 180.5l64 536h22l-118 -980h-6q-8 0 -10 4.5t-2 9.5l46 380v5q-40 -93 -92 -169t-112 -130t-124 -83t-128 -29q-108 0 -158.5 69.5t-50.5 197.5q0 23 2 48.5t5 52.5 l74 624h22zM408 1418q15 0 22.5 -4t13.5 -18l122 -236h-14q-9 0 -14 8l-156 250h26z" />
<glyph unicode="&#xfa;" horiz-adv-x="996" d="M232 980l-74 -624q-6 -53 -6 -99q0 -119 44.5 -184t143.5 -65q62 0 125.5 30.5t123 87.5t113 137.5t96.5 180.5l64 536h22l-118 -980h-6q-8 0 -10 4.5t-2 9.5l46 380v5q-40 -93 -92 -169t-112 -130t-124 -83t-128 -29q-108 0 -158.5 69.5t-50.5 197.5q0 23 2 48.5t5 52.5 l74 624h22zM740 1418l-218 -250q-5 -8 -16 -8h-14l180 236q11 14 19 18t23 4h26z" />
<glyph unicode="&#xfb;" horiz-adv-x="996" d="M232 980l-74 -624q-6 -53 -6 -99q0 -119 44.5 -184t143.5 -65q62 0 125.5 30.5t123 87.5t113 137.5t96.5 180.5l64 536h22l-118 -980h-6q-8 0 -10 4.5t-2 9.5l46 380v5q-40 -93 -92 -169t-112 -130t-124 -83t-128 -29q-108 0 -158.5 69.5t-50.5 197.5q0 23 2 48.5t5 52.5 l74 624h22zM574 1402h16l166 -230h-16q-3 0 -7 1.5t-7 6.5l-142 196q-1 1 -1.5 2.5t-1.5 2.5t-1 2q-1 -2 -6 -7l-190 -196q-3 -3 -7 -5.5t-9 -2.5h-18z" />
<glyph unicode="&#xfc;" horiz-adv-x="996" d="M232 980l-74 -624q-6 -53 -6 -99q0 -119 44.5 -184t143.5 -65q62 0 125.5 30.5t123 87.5t113 137.5t96.5 180.5l64 536h22l-118 -980h-6q-8 0 -10 4.5t-2 9.5l46 380v5q-40 -93 -92 -169t-112 -130t-124 -83t-128 -29q-108 0 -158.5 69.5t-50.5 197.5q0 23 2 48.5t5 52.5 l74 624h22zM464 1304q0 -21 -17.5 -37.5t-38.5 -16.5q-23 0 -39.5 16.5t-16.5 37.5q0 23 16.5 39.5t39.5 16.5q21 0 38.5 -16.5t17.5 -39.5zM792 1304q0 -21 -17.5 -37.5t-38.5 -16.5q-23 0 -39.5 16.5t-16.5 37.5q0 23 16.5 39.5t39.5 16.5q21 0 38.5 -16.5t17.5 -39.5z " />
<glyph unicode="&#xfd;" horiz-adv-x="860" d="M194 -344q-8 -16 -22 -16h-12l201 377l-271 963h12q8 0 11 -3t5 -11l250 -890q5 -18 7 -38q3 10 7.5 19.5t9.5 18.5l470 894q5 10 16 10h14zM696 1418l-218 -250q-5 -8 -16 -8h-14l180 236q11 14 19 18t23 4h26z" />
<glyph unicode="&#xfe;" horiz-adv-x="994" d="M78 -360l220 1800h22l-109 -888q39 97 90.5 178.5t110 140t123.5 91t131 32.5q65 0 113 -25.5t79.5 -70.5t46.5 -106.5t15 -133.5q0 -71 -14.5 -148.5t-43 -152t-70 -141.5t-94.5 -117.5t-117.5 -80.5t-138.5 -30q-87 0 -162 42.5t-117 131.5l-61 -504q-3 -18 -16 -18h-8 zM666 974q-65 0 -129.5 -33.5t-124.5 -96t-113 -152t-95 -200.5l-37 -298q24 -51 54.5 -86.5t66.5 -57.5t75.5 -32t80.5 -10q72 0 133.5 29t112 78t89.5 114.5t65.5 137.5t40 147t13.5 144q0 73 -15 131.5t-44 99.5t-72.5 63t-100.5 22z" />
<glyph unicode="&#xff;" horiz-adv-x="860" d="M194 -344q-8 -16 -22 -16h-12l201 377l-271 963h12q8 0 11 -3t5 -11l250 -890q5 -18 7 -38q3 10 7.5 19.5t9.5 18.5l470 894q5 10 16 10h14zM420 1304q0 -21 -17.5 -37.5t-38.5 -16.5q-23 0 -39.5 16.5t-16.5 37.5q0 23 16.5 39.5t39.5 16.5q21 0 38.5 -16.5t17.5 -39.5z M748 1304q0 -21 -17.5 -37.5t-38.5 -16.5q-23 0 -39.5 16.5t-16.5 37.5q0 23 16.5 39.5t39.5 16.5q21 0 38.5 -16.5t17.5 -39.5z" />
<glyph unicode="&#x104;" horiz-adv-x="1132" d="M1128 -270q4 0 8 -4l4 -6q-26 -26 -63.5 -40t-76.5 -14q-56 0 -91 30.5t-35 89.5q0 37 14.5 69.5t37 60t49.5 50t52 38.5q-3 1 -3 6l-121 468h-677l-236 -468q-7 -10 -16 -10h-16l710 1400h20l366 -1400q-21 -12 -48.5 -31.5t-52.5 -46.5t-42 -60t-17 -72q0 -48 31 -76 t79 -28q30 0 51.5 7t36 15t23 15t13.5 7zM236 498h662l-214 828q-3 11 -5.5 20.5t-4.5 20.5q-5 -11 -10 -20.5t-10 -20.5z" />
<glyph unicode="&#x105;" horiz-adv-x="942" d="M796 -270q4 0 8 -4l4 -6q-26 -26 -63.5 -40t-76.5 -14q-56 0 -91 30.5t-35 89.5q0 38 16 72t40 62.5t52.5 51t53.5 37.5v5l48 416q-38 -97 -87 -178.5t-105.5 -140t-119.5 -91t-130 -32.5q-65 0 -110.5 25t-74 70t-42 107t-13.5 136q0 84 22 166t61 156t93 137t118.5 109 t137 72t148.5 26q54 0 99 -10.5t87 -37.5l-114 -944q-21 -12 -48.5 -31.5t-52.5 -46.5t-42 -60t-17 -72q0 -48 31 -76t79 -28q30 0 51.5 7t36 15t23 15t13.5 7zM310 8q64 0 126.5 33t119.5 95t108 149.5t93 197.5l56 451q-37 20 -77 29t-86 9q-72 0 -141 -25t-131 -69 t-114 -105t-90 -133t-59 -152t-21 -162q0 -73 12.5 -131.5t38.5 -100t67 -64t98 -22.5z" />
<glyph unicode="&#x106;" horiz-adv-x="1322" d="M680 4q79 0 143 13.5t114 34.5t87 44.5t62 44.5t39.5 34.5t19.5 13.5q4 0 6.5 -3t3.5 -4l3 -4q-46 -43 -97 -78.5t-109.5 -61t-126.5 -40t-147 -14.5q-117 0 -213 42.5t-164 121.5t-105.5 191t-37.5 251q0 184 54.5 336.5t150.5 261t226.5 168.5t282.5 60q70 0 125 -10 t101 -30.5t86 -51.5t80 -72l-2 -3q-4 -7 -14 -7q-8 0 -29 24t-63.5 53t-111.5 53t-174 24q-145 0 -270.5 -56.5t-218.5 -161.5t-146 -254t-53 -334q0 -135 36.5 -243.5t102.5 -184.5t157.5 -117t201.5 -41zM1132 1760l-294 -216q-9 -6 -18 -6h-12l248 208q9 8 17 11t23 3h36 z" />
<glyph unicode="&#x107;" horiz-adv-x="856" d="M778 182q-55 -61 -102.5 -99t-92.5 -59t-89 -28.5t-92 -7.5q-84 0 -144.5 29.5t-99.5 80.5t-57.5 121t-18.5 151q0 77 16 154t45.5 146.5t71.5 129t94.5 103t114.5 68.5t132 25q48 0 86.5 -9.5t69.5 -27t56 -41.5t46 -52l-4 -4q-4 -4 -10 -4q-7 0 -21 18.5t-42 40.5 t-72 40.5t-111 18.5q-97 0 -179 -52t-142 -137t-93.5 -194t-33.5 -223q0 -76 16.5 -142t52.5 -115t92 -77t135 -28q60 0 108.5 13.5t86 33.5t65.5 43t48.5 43t33.5 33.5t22 13.5q3 0 5 -0.5t7 -5.5zM758 1418l-218 -250q-5 -8 -16 -8h-14l180 236q11 14 19 18t23 4h26z" />
<glyph unicode="&#x118;" horiz-adv-x="1104" d="M872 -270q4 0 8 -4l4 -6q-26 -26 -63.5 -40t-76.5 -14q-56 0 -91 30.5t-35 89.5q0 36 13.5 67.5t35 59t47.5 49.5t51 38h-605l172 1400h754l-4 -22h-729l-81 -656h620l-4 -22h-618l-84 -678h732l-4 -22h-116q-21 -12 -48.5 -31.5t-52.5 -46.5t-42 -60t-17 -72 q0 -48 31 -76t79 -28q30 0 51.5 7t36 15t23 15t13.5 7z" />
<glyph unicode="&#x119;" horiz-adv-x="870" d="M574 -270q4 0 8 -4l4 -6q-26 -26 -63.5 -40t-76.5 -14q-56 0 -91 30.5t-35 89.5q0 33 12 63t31.5 56t43 47.5t47.5 38.5q-26 -3 -52 -3q-80 0 -140.5 26t-101 74t-60.5 117.5t-20 156.5q0 72 14 147.5t42 145.5t69 132t94.5 108t119 72.5t143.5 26.5q70 0 116 -19t73 -47 t38 -59t11 -55q0 -39 -10.5 -74.5t-38 -67.5t-76.5 -60t-125.5 -52.5t-184.5 -45t-254 -36.5q-9 -59 -9 -116q0 -82 19 -147.5t56.5 -111.5t94 -70.5t132.5 -24.5q57 0 103.5 13.5t83.5 33.5t65.5 43t49 43t34.5 33.5t22 13.5q6 0 9 -3l3 -3q-73 -78 -139 -123t-139 -61 q-21 -12 -48 -32t-51 -46t-40.5 -59t-16.5 -71q0 -48 31 -76t79 -28q30 0 51.5 7t36 15t23 15t13.5 7zM562 974q-95 0 -170.5 -41t-132 -108t-93 -152.5t-52.5 -174.5q148 16 255 36.5t181 44.5t119.5 51.5t70.5 57.5t33.5 61.5t8.5 64.5q0 24 -11.5 52t-37 52t-68 40 t-103.5 16z" />
<glyph unicode="&#x131;" horiz-adv-x="426" d="M284 980l-120 -980h-22l120 980h22z" />
<glyph unicode="&#x141;" horiz-adv-x="966" d="M293 650l437 236v-6q0 -6 -2.5 -10.5t-11.5 -9.5l-425 -231l-75 -607h658l-4 -22h-680l76 617l-200 -107l1 8q1 8 4 11.5t11 8.5l186 101l94 761h24z" />
<glyph unicode="&#x142;" horiz-adv-x="528" d="M88 700q0 8 2 11.5t10 8.5l201 100l75 620h22l-75 -611l209 101v-6q0 -6 -1.5 -10.5t-10.5 -9.5l-200 -98l-98 -806h-20l96 797l-210 -103v6z" />
<glyph unicode="&#x143;" horiz-adv-x="1390" d="M340 1400q7 0 12 -8l745 -1349v10.5t1 10.5l164 1336h20l-172 -1400h-4q-7 0 -14 10l-746 1352q-1 -5 -1 -9t-0.5 -8t-0.5 -7l-164 -1338h-20l172 1400h8v0zM1082 1760l-294 -216q-9 -6 -18 -6h-12l248 208q9 8 17 11t23 3h36z" />
<glyph unicode="&#x144;" horiz-adv-x="998" d="M114 0l118 984h4q8 0 10 -4.5t2 -9.5l-43 -383q40 93 92 168t111.5 128.5t123.5 82t128 28.5q108 0 158.5 -68.5t50.5 -196.5q0 -23 -2 -48.5t-5 -52.5l-74 -628h-22l74 628q3 26 5 51t2 48q0 118 -45 182.5t-144 64.5q-62 0 -125.5 -30.5t-123 -87t-113 -137 t-96.5 -180.5l-64 -539h-22zM786 1418l-218 -250q-5 -8 -16 -8h-14l180 236q11 14 19 18t23 4h26z" />
<glyph unicode="&#x152;" horiz-adv-x="2080" d="M2062 1400l-2 -22h-723l-81 -656h612l-2 -22h-612l-84 -678h724l-4 -22h-746l58 470q-35 -114 -92.5 -203.5t-132.5 -151.5t-166.5 -94.5t-194.5 -32.5q-105 0 -189.5 41t-144.5 117.5t-92 185.5t-32 244q0 192 49 347t134.5 264.5t200.5 169t248 59.5q104 0 187 -39 t142.5 -110t93 -172.5t38.5 -225.5l65 531h746zM1232 824q0 131 -31 237t-88 180.5t-138.5 114.5t-182.5 40q-128 0 -239 -57t-193.5 -163t-130 -257.5t-47.5 -340.5q0 -132 31.5 -237.5t89 -179.5t138.5 -113.5t181 -39.5q130 0 241.5 56.5t193.5 162t128.5 256.5t46.5 341 z" />
<glyph unicode="&#x153;" horiz-adv-x="1517" d="M1223 996q58 0 103 -14.5t76 -40t47 -61.5t16 -79q0 -34 -11 -66.5t-39 -63t-75.5 -58t-120.5 -51.5t-174.5 -44t-236.5 -35q-3 -38 -3 -77q0 -94 20 -168t57 -125t90 -78t119 -27q57 0 103.5 13.5t84 33.5t66 43t49.5 43t34.5 33.5t20.5 13.5q6 0 10 -4l2 -2 q-45 -50 -89.5 -86.5t-89.5 -60.5t-93 -35.5t-100 -11.5q-72 0 -128.5 28.5t-94.5 82t-58.5 129.5t-20.5 171q-23 -94 -63 -170t-95.5 -129.5t-125.5 -82.5t-153 -29q-77 0 -132 28.5t-90 75.5t-51.5 108.5t-16.5 127.5q0 158 35.5 282t98.5 210t150 131t190 45 q72 0 125 -26t88 -74t52 -114.5t17 -147.5q23 83 62 150t91 114t116 72.5t138 25.5zM356 8q100 0 178.5 43.5t134.5 120.5t88.5 183.5t40.5 232.5q5 85 -9 156t-47 122.5t-86 80.5t-126 29q-101 0 -183 -45t-140.5 -129t-90.5 -203.5t-32 -268.5q0 -61 14.5 -119t47 -103 t84.5 -72.5t126 -27.5zM1221 976q-83 0 -153.5 -34t-124 -96t-88 -149t-45.5 -194q199 22 323.5 54t194 71t94.5 83.5t25 89.5q0 34 -13 66t-40.5 56t-70.5 38.5t-102 14.5z" />
<glyph unicode="&#x15a;" horiz-adv-x="950" d="M909 1273q-4 -7 -11 -7q-6 0 -14.5 9.5t-21.5 24t-32.5 31.5t-48 31.5t-67.5 24t-90 9.5q-86 0 -154 -29t-115.5 -78.5t-73 -115.5t-25.5 -139q0 -69 25.5 -115.5t67.5 -79t95 -55.5t109 -44.5t109 -45t95 -57t67.5 -82t25.5 -119.5q0 -92 -31.5 -174t-90 -143.5 t-142 -98t-186.5 -36.5q-65 0 -115 12.5t-90 36t-72.5 57t-60.5 76.5l4 4q6 6 14 6q5 0 14.5 -12.5t25 -32t39 -41.5t57.5 -41.5t79.5 -32t106.5 -12.5q97 0 176 34.5t134.5 93t85.5 137t30 167.5q0 68 -25.5 114t-67.5 78t-95 54.5t-109 43t-109 44t-95 57.5t-67.5 83.5 t-25.5 121.5q0 76 26.5 145.5t77 122.5t123.5 84.5t167 31.5q93 0 161.5 -33t122.5 -105zM914 1760l-294 -216q-9 -6 -18 -6h-12l248 208q9 8 17 11t23 3h36z" />
<glyph unicode="&#x15b;" horiz-adv-x="766" d="M704 898q-5 -8 -7.5 -10t-6.5 -2q-7 0 -20 13.5t-38 30t-65 30.5t-101 14q-57 0 -109 -20t-92 -54.5t-63.5 -79.5t-23.5 -94q0 -46 20 -77.5t52.5 -53.5t74 -38t85 -31.5t85.5 -33t74.5 -42.5t52.5 -61.5t20 -88.5q0 -59 -23 -116t-66 -101.5t-104.5 -71.5t-138.5 -27 q-48 0 -85.5 8.5t-67.5 23.5t-55.5 37t-49.5 49l6 6q6 6 10 6q5 0 19 -17.5t42 -38.5t72.5 -38.5t112.5 -17.5t125 25t97.5 66.5t63 95t22.5 111.5q0 49 -20 83t-52.5 57.5t-74.5 39.5t-85.5 31t-85 32t-74 40.5t-52.5 58t-20 84.5q0 53 24.5 101.5t67 85.5t99 59t121.5 22 q77 0 132 -22.5t102 -73.5zM668 1418l-218 -250q-5 -8 -16 -8h-14l180 236q11 14 19 18t23 4h26z" />
<glyph unicode="&#x160;" horiz-adv-x="950" d="M909 1273q-4 -7 -11 -7q-6 0 -14.5 9.5t-21.5 24t-32.5 31.5t-48 31.5t-67.5 24t-90 9.5q-86 0 -154 -29t-115.5 -78.5t-73 -115.5t-25.5 -139q0 -69 25.5 -115.5t67.5 -79t95 -55.5t109 -44.5t109 -45t95 -57t67.5 -82t25.5 -119.5q0 -92 -31.5 -174t-90 -143.5 t-142 -98t-186.5 -36.5q-65 0 -115 12.5t-90 36t-72.5 57t-60.5 76.5l4 4q6 6 14 6q5 0 14.5 -12.5t25 -32t39 -41.5t57.5 -41.5t79.5 -32t106.5 -12.5q97 0 176 34.5t134.5 93t85.5 137t30 167.5q0 68 -25.5 114t-67.5 78t-95 54.5t-109 43t-109 44t-95 57.5t-67.5 83.5 t-25.5 121.5q0 76 26.5 145.5t77 122.5t123.5 84.5t167 31.5q93 0 161.5 -33t122.5 -105zM464 1728h30l171 -172l213 172h30l-236 -190h-18z" />
<glyph unicode="&#x161;" horiz-adv-x="766" d="M704 898q-5 -8 -7.5 -10t-6.5 -2q-7 0 -20 13.5t-38 30t-65 30.5t-101 14q-57 0 -109 -20t-92 -54.5t-63.5 -79.5t-23.5 -94q0 -46 20 -77.5t52.5 -53.5t74 -38t85 -31.5t85.5 -33t74.5 -42.5t52.5 -61.5t20 -88.5q0 -59 -23 -116t-66 -101.5t-104.5 -71.5t-138.5 -27 q-48 0 -85.5 8.5t-67.5 23.5t-55.5 37t-49.5 49l6 6q6 6 10 6q5 0 19 -17.5t42 -38.5t72.5 -38.5t112.5 -17.5t125 25t97.5 66.5t63 95t22.5 111.5q0 49 -20 83t-52.5 57.5t-74.5 39.5t-85.5 31t-85 32t-74 40.5t-52.5 58t-20 84.5q0 53 24.5 101.5t67 85.5t99 59t121.5 22 q77 0 132 -22.5t102 -73.5zM488 1172h-16l-168 230h18q9 0 14 -8l142 -196l2 -2q1 -1 1 -2.5t1 -2.5l196 203q8 8 16 8h18z" />
<glyph unicode="&#x178;" horiz-adv-x="1058" d="M554 595l-74 -595h-24l74 595l-382 805h20q8 0 12 -8l352 -750q3 -6 6 -12.5t6 -14.5q5 8 9.5 14.5t8.5 12.5l536 750q5 8 14 8h20zM560 1664q0 -21 -17.5 -37.5t-38.5 -16.5q-23 0 -39.5 16.5t-16.5 37.5q0 23 16.5 39.5t39.5 16.5q21 0 38.5 -16.5t17.5 -39.5z M888 1664q0 -21 -17.5 -37.5t-38.5 -16.5q-23 0 -39.5 16.5t-16.5 37.5q0 23 16.5 39.5t39.5 16.5q21 0 38.5 -16.5t17.5 -39.5z" />
<glyph unicode="&#x179;" horiz-adv-x="1180" d="M1176 1400l-2 -10q-2 -5 -3.5 -7.5t-6.5 -8.5l-1061 -1352h901l-4 -22h-932l2 10q2 5 3.5 7t4.5 7l1062 1354h-888l4 22h920zM980 1760l-294 -216q-9 -6 -18 -6h-12l248 208q9 8 17 11t23 3h36z" />
<glyph unicode="&#x17a;" horiz-adv-x="820" d="M801 973q0 -6 -9 -15l-746 -938h610l-2 -20h-640v6q0 4 2.5 7.5t5.5 6.5l747 940h-607l4 20h636zM682 1418l-218 -250q-5 -8 -16 -8h-14l180 236q11 14 19 18t23 4h26z" />
<glyph unicode="&#x17b;" horiz-adv-x="1180" d="M1176 1400l-2 -10q-2 -5 -3.5 -7.5t-6.5 -8.5l-1061 -1352h901l-4 -22h-932l2 10q2 5 3.5 7t4.5 7l1062 1354h-888l4 22h920zM790 1668q0 -21 -17.5 -37.5t-38.5 -16.5q-23 0 -39.5 16.5t-16.5 37.5q0 23 16.5 39.5t39.5 16.5q21 0 38.5 -16.5t17.5 -39.5z" />
<glyph unicode="&#x17c;" horiz-adv-x="820" d="M801 973q0 -6 -9 -15l-746 -938h610l-2 -20h-640v6q0 4 2.5 7.5t5.5 6.5l747 940h-607l4 20h636zM600 1362q0 -21 -17.5 -37.5t-38.5 -16.5q-23 0 -39.5 16.5t-16.5 37.5q0 23 16.5 39.5t39.5 16.5q21 0 38.5 -16.5t17.5 -39.5z" />
<glyph unicode="&#x17d;" horiz-adv-x="1180" d="M1176 1400l-2 -10q-2 -5 -3.5 -7.5t-6.5 -8.5l-1061 -1352h901l-4 -22h-932l2 10q2 5 3.5 7t4.5 7l1062 1354h-888l4 22h920zM520 1728h30l171 -172l213 172h30l-236 -190h-18z" />
<glyph unicode="&#x17e;" horiz-adv-x="820" d="M801 973q0 -6 -9 -15l-746 -938h610l-2 -20h-640v6q0 4 2.5 7.5t5.5 6.5l747 940h-607l4 20h636zM502 1172h-16l-168 230h18q9 0 14 -8l142 -196l2 -2q1 -1 1 -2.5t1 -2.5l196 203q8 8 16 8h18z" />
<glyph unicode="&#x192;" d="M642 822l-202 -830q-23 -94 -64 -162t-96 -112t-120.5 -65t-137.5 -21l1 6q2 14 19 14q56 1 113 19t107 58t90.5 104t63.5 159l203 830l-225 4q-12 0 -12 8l2 8h240l52 212q22 94 61.5 162t93 112t119.5 65t142 21l-1 -6q-3 -14 -17 -14q-59 0 -115 -17.5t-105.5 -57 t-89 -104.5t-64.5 -161l-55 -212h387l-4 -20h-386z" />
<glyph unicode="&#x2c6;" horiz-adv-x="516" d="M362 1400h16l166 -230h-16q-3 0 -7 1.5t-7 6.5l-142 196q-1 1 -1.5 2.5t-1.5 2.5t-1 2q-1 -2 -6 -7l-190 -196q-3 -3 -7 -5.5t-9 -2.5h-18z" />
<glyph unicode="&#x2c7;" horiz-adv-x="516" d="M350 1170h-16l-168 230h18q9 0 14 -8l142 -196l2 -2q1 -1 1 -2.5t1 -2.5l196 203q8 8 16 8h18z" />
<glyph unicode="&#x2c9;" horiz-adv-x="516" d="M118 1290h480l-2 -20h-480z" />
<glyph unicode="&#x2d8;" horiz-adv-x="516" d="M346 1172q-45 0 -77 14t-52.5 38.5t-30 57.5t-9.5 71q0 23 3 47h20q-3 -23 -3 -44q0 -34 8 -63.5t26 -52t47 -35.5t70 -13q48 0 83.5 17.5t59.5 46t38 66t19 78.5h20q-6 -47 -22 -88t-43 -72.5t-66 -49.5t-91 -18z" />
<glyph unicode="&#x2d9;" horiz-adv-x="516" d="M446 1360q0 -21 -17.5 -37.5t-38.5 -16.5q-23 0 -39.5 16.5t-16.5 37.5q0 23 16.5 39.5t39.5 16.5q21 0 38.5 -16.5t17.5 -39.5z" />
<glyph unicode="&#x2da;" horiz-adv-x="516" d="M210 1290q0 31 11.5 57t31.5 45.5t47 30.5t58 11t58 -11t47 -30.5t31.5 -45.5t11.5 -57t-11.5 -57t-31.5 -45.5t-47 -30.5t-58 -11t-58 11t-47 30.5t-31.5 45.5t-11.5 57zM232 1290q0 -27 9.5 -50t26.5 -40t40 -26.5t50 -9.5t50 9.5t40 26.5t26.5 40t9.5 50t-9.5 50 t-26.5 40t-40 26.5t-50 9.5t-50 -9.5t-40 -26.5t-26.5 -40t-9.5 -50z" />
<glyph unicode="&#x2db;" horiz-adv-x="516" d="M316 -270q4 0 8 -4l4 -6q-26 -26 -63.5 -40t-76.5 -14q-56 0 -91 30.5t-35 89.5q0 40 17 75t42.5 64t55 51.5t55.5 37.5l10 -14q-21 -12 -48.5 -31.5t-52.5 -46.5t-42 -60t-17 -72q0 -48 31 -76t79 -28q30 0 51.5 7t36 15t23 15t13.5 7z" />
<glyph unicode="&#x2dc;" horiz-adv-x="516" d="M458 1242q47 0 72.5 33t33.5 81h16q-3 -27 -12.5 -51.5t-25 -42.5t-37 -29t-49.5 -11q-29 0 -52.5 18t-45.5 40t-44.5 40t-49.5 18q-22 0 -40 -9t-31.5 -24.5t-22 -36.5t-12.5 -44h-16q3 27 13 51.5t26 42.5t38 29t49 11q30 0 53.5 -18t45 -40t43.5 -40t48 -18z" />
<glyph unicode="&#x2dd;" horiz-adv-x="516" d="M462 1416l-212 -250q-8 -8 -16 -8h-14l180 236q9 14 17 18t23 4h22zM680 1416l-234 -250q-8 -8 -18 -8h-12l198 236q11 12 18 17t24 5h24z" />
<glyph unicode="&#x3c0;" horiz-adv-x="1032" d="M1060 980v-6q0 -6 -5 -11t-13 -5h-187l-117 -958h-24l117 958h-484l-93 -766q-6 -51 -22.5 -88.5t-42 -62.5t-58.5 -37t-71 -12q-27 0 -45 3.5t-33 14.5l4 8q4 8 11 8q8 0 22.5 -7t42.5 -7q68 0 112.5 44.5t55.5 135.5l93 766h-193v8q0 5 4.5 9.5t13.5 4.5h912z" />
<glyph unicode="&#x2013;" horiz-adv-x="972" d="M140 578h714l-2 -20h-714z" />
<glyph unicode="&#x2014;" horiz-adv-x="1426" d="M140 578h1168l-4 -20h-1166z" />
<glyph unicode="&#x2018;" horiz-adv-x="342" d="M234 1096q-16 41 -16 85q0 38 11 75t29.5 71.5t42.5 66.5t50 59l3 -3q2 -2 2 -4t-8 -13q-49 -60 -76.5 -120.5t-27.5 -116.5q0 -38 14 -72q2 -6 2 -9q0 -7 -6 -9z" />
<glyph unicode="&#x2019;" horiz-adv-x="342" d="M288 1450q16 -41 16 -85q0 -38 -11 -75t-29.5 -71.5t-42.5 -66.5t-50 -59l-3 3q-2 2 -2 4t8 13q49 60 76.5 120.5t27.5 116.5q0 38 -14 72q-2 6 -2 9q0 7 6 9z" />
<glyph unicode="&#x201a;" horiz-adv-x="356" d="M146 120q16 -41 16 -85q0 -38 -11 -75t-29.5 -71.5t-42.5 -66.5t-50 -59l-3 3q-2 2 -2 4t8 13q49 60 76.5 120.5t27.5 116.5q0 38 -14 72q-2 6 -2 9q0 7 6 9z" />
<glyph unicode="&#x201c;" horiz-adv-x="562" d="M234 1096q-16 41 -16 85q0 38 11 75t29.5 71.5t42.5 66.5t50 59l3 -3q2 -2 2 -4t-8 -13q-49 -60 -76.5 -120.5t-27.5 -116.5q0 -38 14 -72q2 -6 2 -9q0 -7 -6 -9zM456 1096q-16 41 -16 85q0 38 11 75t29.5 71.5t42.5 66.5t50 59l3 -3q2 -2 2 -4t-8 -13 q-49 -60 -76.5 -120.5t-27.5 -116.5q0 -38 14 -72q2 -6 2 -9q0 -7 -6 -9z" />
<glyph unicode="&#x201d;" horiz-adv-x="562" d="M308 1450q16 -41 16 -85q0 -38 -11 -75t-29.5 -71.5t-42.5 -66.5t-50 -59l-3 3q-2 2 -2 4t8 13q49 60 76.5 120.5t27.5 116.5q0 38 -14 72q-2 6 -2 9q0 7 6 9zM530 1450q16 -41 16 -85q0 -38 -11 -75t-29.5 -71.5t-42.5 -66.5t-50 -59l-3 3q-2 2 -2 4t8 13 q49 60 76.5 120.5t27.5 116.5q0 38 -14 72q-2 6 -2 9q0 7 6 9z" />
<glyph unicode="&#x201e;" horiz-adv-x="562" d="M66 120q16 -41 16 -85q0 -38 -11 -75t-29.5 -71.5t-42.5 -66.5t-50 -59l-3 3q-2 2 -2 4t8 13q49 60 76.5 120.5t27.5 116.5q0 38 -14 72q-2 6 -2 9q0 7 6 9zM288 120q16 -41 16 -85q0 -38 -11 -75t-29.5 -71.5t-42.5 -66.5t-50 -59l-3 3q-2 2 -2 4t8 13q49 60 76.5 120.5 t27.5 116.5q0 38 -14 72q-2 6 -2 9q0 7 6 9z" />
<glyph unicode="&#x2020;" horiz-adv-x="1068" d="M234 930q0 5 5 9.5t11 4.5l324 -6l56 478q3 2 6 3t8 1t8 -1t6 -3l-63 -478l327 6q12 0 12 -17v-5h-341l-69 -564l-84 -720q-8 -4 -14 -4q-5 0 -8 1t-6 3l92 720l69 564h-340z" />
<glyph unicode="&#x2021;" horiz-adv-x="1068" d="M136 132h341l96 790h-340l1 8q0 5 5 9.5t11 4.5l324 -6l56 478q3 2 6 3t8 1t8 -1t6 -3l-63 -478l327 6q5 0 8.5 -3.5t3.5 -8.5q0 -1 -0.5 -2t-0.5 -3v-5h-340l-45 -372l-53 -418h341v-4q0 -2 -0.5 -4t-0.5 -3q-4 -11 -15 -11l-327 5l-53 -477q-8 -4 -14 -4q-5 0 -8 1 t-6 3l63 477l-329 -5q-6 0 -8.5 4.5t-2.5 9.5z" />
<glyph unicode="&#x2022;" d="M384 598q0 47 18 88.5t48.5 72.5t71 49t86.5 18q47 0 88.5 -18t72.5 -49t49 -72.5t18 -88.5q0 -46 -18 -86.5t-49 -71t-72.5 -48.5t-88.5 -18q-46 0 -86.5 18t-71 48.5t-48.5 71t-18 86.5z" />
<glyph unicode="&#x2026;" horiz-adv-x="1310" d="M70 48q0 27 18.5 46.5t45.5 19.5t46.5 -19.5t19.5 -46.5t-19.5 -45.5t-46.5 -18.5t-45.5 18.5t-18.5 45.5zM540 48q0 27 18.5 46.5t45.5 19.5t46.5 -19.5t19.5 -46.5t-19.5 -45.5t-46.5 -18.5t-45.5 18.5t-18.5 45.5zM1010 48q0 27 18.5 46.5t45.5 19.5t46.5 -19.5 t19.5 -46.5t-19.5 -45.5t-46.5 -18.5t-45.5 18.5t-18.5 45.5z" />
<glyph unicode="&#x2030;" horiz-adv-x="2040" d="M684 1130q0 -107 -25.5 -185t-68 -129.5t-98 -76.5t-114.5 -25q-47 0 -87.5 17.5t-70 53t-46 89t-16.5 124.5q0 106 25 185t67 130.5t97.5 77t116.5 25.5q46 0 86.5 -17.5t70 -53.5t46.5 -89.5t17 -125.5zM662 1130q0 68 -15.5 118.5t-42.5 83.5t-63.5 49.5t-78.5 16.5 q-56 0 -107 -23.5t-90.5 -73t-63 -125t-23.5 -178.5q0 -68 15.5 -118t42.5 -83t64 -49t80 -16q55 0 106 23.5t90 72t62.5 123.5t23.5 179zM1236 1392q8 8 18 8h14l-1082 -1392q-5 -8 -16 -8h-14zM1276 400q0 -107 -25.5 -185t-68 -129.5t-98 -76.5t-114.5 -25 q-47 0 -87.5 17.5t-70 53t-46 89t-16.5 124.5q0 106 25 185t67 130.5t97.5 77t116.5 25.5q46 0 86.5 -17.5t70 -53.5t46.5 -89.5t17 -125.5zM1254 400q0 68 -15.5 118.5t-42.5 83.5t-63.5 49.5t-78.5 16.5q-56 0 -107 -23.5t-90.5 -73t-63 -125t-23.5 -178.5 q0 -68 15.5 -118t42.5 -83t64 -49t80 -16q55 0 106 23.5t90 72t62.5 123.5t23.5 179zM1934 400q0 -107 -25.5 -185t-67.5 -129.5t-97.5 -76.5t-115.5 -25q-47 0 -87.5 17.5t-70 53t-46 89t-16.5 124.5q0 106 25 185t67 130.5t97.5 77t116.5 25.5q46 0 86.5 -17.5t70 -53.5 t46.5 -89.5t17 -125.5zM1912 400q0 68 -15.5 118.5t-42.5 83.5t-63.5 49.5t-78.5 16.5q-55 0 -106 -23.5t-90 -73t-62.5 -125t-23.5 -178.5q0 -68 15.5 -118t42.5 -83t63.5 -49t78.5 -16q55 0 106 23.5t90 72t62.5 123.5t23.5 179z" />
<glyph unicode="&#x2039;" horiz-adv-x="566" d="M158 508v4l262 370l6 -4q4 -4 4 -10q0 -7 -6 -14l-226 -322q-15 -20 -20 -22q6 -4 14 -22l148 -322q3 -6 3 -11q0 -8 -7 -13l-8 -4z" />
<glyph unicode="&#x203a;" horiz-adv-x="566" d="M146 138l-6 4q-5 3 -5 10q0 6 5 14l228 322q6 10 10.5 15t7.5 7q-6 3 -14 22l-148 322q-2 4 -2 10q0 8 8 14l6 4l170 -370v-4z" />
<glyph unicode="&#x2044;" horiz-adv-x="366" d="M-223 12q-5 -8 -11 -10t-12 -2h-10l892 1388q6 12 21 12h12z" />
<glyph unicode="&#x20ac;" d="M70 832h173q27 137 81 245.5t131.5 183.5t176.5 115t216 40q62 0 112.5 -10t93 -30.5t78.5 -51.5t70 -72l-3 -4q-5 -6 -11 -6q-5 0 -14.5 11.5t-26 28.5t-41.5 37t-61 37t-85.5 28.5t-113.5 11.5q-110 0 -204.5 -37.5t-169 -109.5t-127 -177t-79.5 -240h656v-8 q0 -12 -16 -12h-644q-8 -49 -13 -100.5t-7 -107.5h562v-8q0 -12 -16 -12h-546v-24q0 -133 29 -236.5t84.5 -174.5t134.5 -108t180 -37q68 0 123.5 13.5t99 34t76.5 44.5t55.5 44.5t36.5 34t21 13.5q3 0 4 -1l4 -4l4 -5q-41 -43 -86.5 -78.5t-98 -61t-113 -40t-130.5 -14.5 q-106 0 -189 39t-140.5 112.5t-88 180t-30.5 242.5v26h-178l2 20h177q2 55 6.5 107t13.5 101h-171z" />
<glyph unicode="&#x2122;" horiz-adv-x="1302" d="M954 978q3 -6 3 -11l7 11l280 416q3 6 10 6h14l-68 -562h-20l62 512l3 14l-279 -414q-3 -6 -10 -6h-4q-5 0 -8 6l-184 414v-14l-64 -512h-20l68 562h14q7 0 10 -6zM606 1400l-2 -20h-198l-66 -542h-24l66 542h-200l4 20h420z" />
<glyph unicode="&#x2126;" horiz-adv-x="1402" d="M762 0l36 298q114 28 208 78.5t161.5 126t105 177t37.5 230.5q0 121 -39.5 212t-107.5 152t-158.5 91.5t-192.5 30.5q-81 0 -159 -17.5t-149 -52.5t-131 -87.5t-103.5 -123t-68.5 -159t-25 -194.5q0 -93 26.5 -168.5t76 -134t120 -99t157.5 -62.5l-36 -298h-455 q-5 0 -9 3.5t-4 8.5v12h449l32 261q-80 19 -149.5 59.5t-121 100.5t-81 140t-29.5 179q0 107 25.5 197.5t70.5 163t107 127t135.5 91t155.5 55t168 18.5q108 0 202.5 -32.5t165 -96t111.5 -157.5t41 -218q0 -136 -42 -242t-113 -184t-164.5 -127.5t-195.5 -73.5l-32 -261 h447v-12q0 -12 -14 -12h-458z" />
<glyph unicode="&#x2202;" horiz-adv-x="1067" d="M504 1344q34 21 64 35.5t57.5 23.5t55 13t56.5 4q130 0 195.5 -96.5t65.5 -274.5q0 -35 -2.5 -71.5t-7.5 -77.5q-16 -126 -44.5 -242.5t-69 -217.5t-92.5 -184t-115 -142t-136.5 -91.5t-155.5 -32.5q-62 0 -112 21t-84.5 60t-53 95t-18.5 127q0 17 1 34.5t3 36.5 q14 113 58.5 213.5t113 175.5t158 119t193.5 44q49 0 97 -16t86.5 -51t64 -91t31.5 -136q11 39 19.5 81t14.5 80t10.5 69t6.5 50q5 40 7.5 77t2.5 71q0 169 -59.5 258.5t-180.5 89.5q-50 0 -88 -10.5t-65 -22.5t-43.5 -22.5t-23.5 -10.5q-3 0 -5.5 3t-3.5 6zM382 10 q88 0 167.5 42t145.5 117t118 178t86 226q-1 58 -15.5 116t-45.5 104t-80.5 74.5t-121.5 28.5q-101 0 -186.5 -41t-150.5 -113t-107.5 -168.5t-56.5 -207.5q-2 -18 -3 -35t-1 -34q0 -138 67.5 -212.5t183.5 -74.5z" />
<glyph unicode="&#x2206;" horiz-adv-x="1132" d="M1054 0h-1096l710 1400h20zM-5 20h1026l-337 1306q-3 11 -5.5 20.5t-4.5 20.5q-5 -11 -10 -20.5t-10 -20.5z" />
<glyph unicode="&#x220f;" horiz-adv-x="1360" d="M1382 1400l-2 -22h-231l-213 -1738h-24l213 1738h-672l-213 -1738h-24l213 1738h-229l2 22h1180z" />
<glyph unicode="&#x2211;" horiz-adv-x="1252" d="M1290 1400l-2 -22h-1051l547 -856l-1 -4l-756 -856h1050l-3 -22h-1086l1 6q1 5 2 9t4 7l758 857l-548 857q-3 3 -3 10q0 2 0.5 5.5t1.5 8.5h1086z" />
<glyph unicode="&#x2212;" d="M202 680h802l-2 -20h-802z" />
<glyph unicode="&#x221a;" horiz-adv-x="1104" d="M568 0h-18l-195 714h-279q-12 0 -12 12v6h296q9 0 12.5 -4.5t5.5 -9.5l176 -650q3 -11 5 -20t3 -17q2 5 4 11q2 5 4 11.5t6 14.5l738 1644q6 14 20 14h8z" />
<glyph unicode="&#x221e;" horiz-adv-x="1251" d="M903 306q-50 0 -89 22.5t-70.5 59.5t-57.5 85t-51 98q-37 -50 -75 -98t-78.5 -85t-85 -59.5t-94.5 -22.5q-44 0 -82.5 16t-67.5 46.5t-46 74.5t-17 100q0 23 3 47q8 67 35 119.5t65 89t85 56t95 19.5q50 0 89 -22.5t70.5 -59.5t57.5 -85t51 -98q37 50 75 98t78.5 85 t85 59.5t94.5 22.5q45 0 84 -16t68 -46.5t46 -74.5t17 -100q0 -23 -3 -47q-8 -67 -35 -119.5t-65.5 -89t-85.5 -56t-96 -19.5zM305 326q47 0 89.5 22.5t81.5 59t76 84t74 97.5q-25 50 -50.5 98t-55.5 85t-67 59.5t-84 22.5q-46 0 -89 -18t-77.5 -52.5t-58.5 -83.5t-31 -110 q-3 -24 -3 -46q0 -51 15 -91.5t41 -68.5t61.5 -43t77.5 -15zM906 326q47 0 90 18t77.5 52.5t58 83t31.5 110.5q3 24 3 46q0 51 -14.5 91.5t-41 68.5t-62.5 43t-78 15q-47 0 -89 -22.5t-81.5 -59.5t-76.5 -84.5t-74 -97.5q25 -50 50.5 -97.5t55.5 -84.5t67 -59.5t84 -22.5z " />
<glyph unicode="&#x222b;" horiz-adv-x="685" d="M507 1082q21 87 55.5 150t78.5 104t94 60.5t102 19.5q36 0 57 -4.5t39 -15.5l-3 -6q-4 -8 -10 -8q-9 0 -27 7t-55 7q-50 0 -97 -18t-87 -56.5t-72 -98t-51 -141.5l-257 -1090q-22 -97 -58 -165t-82 -111.5t-100 -63.5t-113 -20q-29 0 -54.5 3.5t-40.5 14.5l5 8q4 7 10 7 q9 0 27 -7.5t55 -7.5q55 0 104.5 18.5t91.5 59t75.5 105.5t56.5 159z" />
<glyph unicode="&#x2248;" d="M810 768q47 0 90 21.5t72 54.5l12 -10q-30 -39 -77.5 -62.5t-98.5 -23.5t-98 19.5t-93 42.5t-91.5 42.5t-93.5 19.5q-50 0 -91.5 -21.5t-70.5 -54.5l-12 10q30 39 76 62.5t100 23.5q52 0 100 -19.5t93.5 -42.5t90.5 -42.5t92 -19.5zM774 472q47 0 90 21.5t72 54.5l12 -10 q-30 -39 -77.5 -62.5t-98.5 -23.5t-98.5 19.5t-93.5 42.5t-92 42.5t-94 19.5q-50 0 -91.5 -21.5t-68.5 -54.5l-14 10q32 39 78 62.5t100 23.5q52 0 100 -19.5t93.5 -42.5t90.5 -42.5t92 -19.5z" />
<glyph unicode="&#x2260;" d="M214 834h475l153 290h22l-153 -290h303l-2 -20h-311l-145 -274h422l-2 -20h-430l-152 -288h-22l151 288h-347l2 20h356l144 274h-466z" />
<glyph unicode="&#x2264;" horiz-adv-x="1067" d="M189 676l775 372l-1 -11q-1 -11 -22 -21l-683 -326q-12 -6 -24 -11.5t-25 -8.5q11 -4 22 -9.5t22 -10.5l603 -326q8 -5 11.5 -9t3.5 -14v-9l-684 372zM118 100h730l-3 -20h-730z" />
<glyph unicode="&#x2265;" horiz-adv-x="1067" d="M857 80h-730l3 20h730zM928 664l-775 -372l1 11q1 11 22 21l683 326q12 6 24 11.5t25 8.5q-11 4 -22 9.5t-22 10.5l-603 326q-8 5 -11.5 9t-3.5 14v9l684 -372z" />
<glyph unicode="&#x25ca;" d="M170 658l412 842h16l412 -842l-412 -842h-16zM196 658l380 -774q10 -21 14 -41q4 20 14 41l380 774l-380 774q-10 21 -14 41q-4 -20 -14 -41z" />
<glyph unicode="&#x2669;" horiz-adv-x="0" d="M-118 -500l242 2000h2l-242 -2000h-2z" />
<glyph unicode="&#xe000;" horiz-adv-x="980" d="M0 980h980v-980h-980v980z" />
<glyph horiz-adv-x="516" d="M206 -100l-96 -280h-16l76 280h36z" />
<glyph horiz-adv-x="516" d="M190 1760q17 0 23.5 -3t14.5 -11l196 -208h-12q-7 0 -16 6l-240 216h34z" />
<glyph horiz-adv-x="516" d="M284 1664q0 -21 -17.5 -37.5t-38.5 -16.5q-23 0 -39.5 16.5t-16.5 37.5q0 23 16.5 39.5t39.5 16.5q21 0 38.5 -16.5t17.5 -39.5zM612 1664q0 -21 -17.5 -37.5t-38.5 -16.5q-23 0 -39.5 16.5t-16.5 37.5q0 23 16.5 39.5t39.5 16.5q21 0 38.5 -16.5t17.5 -39.5z" />
<glyph horiz-adv-x="516" d="M148 1622h494l-4 -20h-492z" />
<glyph horiz-adv-x="516" d="M642 1760l-294 -216q-9 -6 -18 -6h-12l248 208q9 8 17 11t23 3h36z" />
<glyph horiz-adv-x="516" d="M598 1538h-20q-3 0 -8 1.5t-8 6.5l-160 160q-3 1 -4 4q-1 -2 -2 -2.5t-2 -1.5l-200 -160q-5 -5 -10 -6.5t-10 -1.5h-20l238 190h16z" />
<glyph horiz-adv-x="516" d="M182 1728h30l171 -172l213 172h30l-236 -190h-18z" />
<glyph horiz-adv-x="516" d="M384 1528q-91 0 -132 41.5t-41 115.5q0 20 3 43h20q-3 -21 -3 -40q0 -65 35.5 -102.5t119.5 -37.5q48 0 83 13t58.5 36.5t36.5 56.5t18 74h20q-12 -93 -63.5 -146.5t-154.5 -53.5z" />
<glyph horiz-adv-x="516" d="M452 1668q0 -21 -17.5 -37.5t-38.5 -16.5q-23 0 -39.5 16.5t-16.5 37.5q0 23 16.5 39.5t39.5 16.5q21 0 38.5 -16.5t17.5 -39.5z" />
<glyph horiz-adv-x="516" d="M234 1604q0 31 11.5 57t31.5 45.5t47 30.5t58 11t58 -11t47 -30.5t31.5 -45.5t11.5 -57t-11.5 -57t-31.5 -45.5t-47 -30.5t-58 -11t-58 11t-47 30.5t-31.5 45.5t-11.5 57zM256 1604q0 -27 9.5 -50t26.5 -40t40 -26.5t50 -9.5t50 9.5t40 26.5t26.5 40t9.5 50t-9.5 50 t-26.5 40t-40 26.5t-50 9.5t-50 -9.5t-40 -26.5t-26.5 -40t-9.5 -50z" />
<glyph horiz-adv-x="516" d="M500 1576q45 0 71.5 33t34.5 81h16q-4 -27 -13.5 -51.5t-24.5 -42.5t-36.5 -29t-49.5 -11q-30 0 -53.5 18t-45.5 40t-44 40t-49 18q-23 0 -40.5 -9t-31 -24.5t-22 -36.5t-12.5 -44h-18q4 27 14 51.5t26 42.5t37.5 29t48.5 11q31 0 54.5 -18t45 -40t43.5 -40t49 -18z" />
<glyph horiz-adv-x="516" d="M484 1760l-206 -214q-5 -8 -16 -8h-14l174 200q11 12 19 17t23 5h20zM740 1760l-230 -214q-5 -8 -16 -8h-14l192 200q13 13 21 17.5t23 4.5h24z" />
<glyph horiz-adv-x="516" d="M378 1442q12 0 12 -16q0 -11 -5 -29.5t-14.5 -48.5t-24.5 -72.5t-34 -99.5q-2 -6 -5 -10t-11 -4h-6l78 280h10z" />
</font>
</defs>
</svg>
